<?xml version="1.0" standalone="no"?>
<!DOCTYPE svg PUBLIC "-//W3C//DTD SVG 1.1//EN" "http://www.w3.org/Graphics/SVG/1.1/DTD/svg11.dtd" >
<svg xmlns="http://www.w3.org/2000/svg" xmlns:xlink="http://www.w3.org/1999/xlink" version="1.1">
<metadata>
Created by FontForge 20170731 at Wed Jul 18 15:37:21 2007
 By Aleksey,,,
(c) 2006 Microsoft Corporation. All Rights Reserved.
</metadata>
<defs>
<font id="Verdana-Italic" horiz-adv-x="0" >
  <font-face 
    font-family="Verdana"
    font-weight="400"
    font-style="italic"
    font-stretch="normal"
    units-per-em="2048"
    panose-1="2 11 6 4 3 5 4 11 2 4"
    ascent="1638"
    descent="-410"
    x-height="1117"
    cap-height="1489"
    bbox="-855 -621 2992 2049"
    underline-thickness="120"
    underline-position="-360"
    slope="-13"
    unicode-range="U+0020-FB02"
  />
<missing-glyph horiz-adv-x="2048" 
d="M256 0v1536h1536v-1536h-1536zM384 128h1280v1280h-1280v-1280z" />
    <glyph glyph-name=".notdef" horiz-adv-x="2048" 
d="M256 0v1536h1536v-1536h-1536zM384 128h1280v1280h-1280v-1280z" />
    <glyph glyph-name=".null" 
 />
    <glyph glyph-name="nonmarkingreturn" horiz-adv-x="720" 
 />
    <glyph glyph-name="space" unicode=" " horiz-adv-x="720" 
 />
    <glyph glyph-name="space" unicode="&#xa0;" horiz-adv-x="720" 
 />
    <glyph glyph-name="exclam" unicode="!" horiz-adv-x="806" 
d="M730 1489l-275 -1079h-170l221 1079h224zM376 0h-204l49 211h204z" />
    <glyph glyph-name="quotedbl" unicode="&#x22;" horiz-adv-x="940" 
d="M1005 1556l-182 -579h-132l96 579h218zM619 1556l-182 -579h-132l96 579h218z" />
    <glyph glyph-name="numbersign" unicode="#" horiz-adv-x="1676" 
d="M1555 932h-333l-152 -376h308l-21 -135h-343l-171 -421h-129l171 421h-270l-171 -421h-129l171 421h-298l21 135h333l152 376h-308l21 135h343l172 422h129l-172 -422h270l172 422h129l-172 -422h298zM1096 934h-274l-154 -380h274z" />
    <glyph glyph-name="dollar" unicode="$" horiz-adv-x="1302" 
d="M597 1l-84 -362h-118l82 357q-124 1 -231 28t-186 67l43 182h16q21 -19 52 -39t87 -42q44 -18 109 -34t144 -19l101 441q-32 7 -60 14t-61 16q-132 36 -192 109.5t-60 166.5q0 164 142 280.5t392 137.5l63 272h118l-62 -270q101 -3 196.5 -27.5t160.5 -53.5l-43 -180h-14
q-69 53 -149.5 84t-183.5 37l-100 -439q23 -5 53.5 -12.5t60.5 -15.5q127 -34 193 -100t66 -164q0 -178 -141.5 -295t-393.5 -139zM645 744l96 421q-147 -11 -226.5 -76.5t-79.5 -169.5q0 -64 46 -106.5t164 -68.5zM935 389q0 71 -50.5 111t-159.5 61l-96 -420
q144 10 225 70.5t81 177.5z" />
    <glyph glyph-name="percent" unicode="%" horiz-adv-x="2204" 
d="M489 634q-148 0 -224 74.5t-76 221.5q0 262 125.5 424.5t342.5 162.5q147 0 223 -75.5t76 -220.5q0 -252 -122 -419.5t-345 -167.5zM722 915q30 68 43.5 146.5t13.5 161.5q0 82 -34 124t-114 42q-72 0 -123 -42t-84 -110q-29 -60 -44 -142t-15 -165q0 -81 33.5 -124.5
t116.5 -43.5q72 0 124 42t83 111zM1619 -29q-148 0 -224 74.5t-76 221.5q0 262 125.5 424.5t342.5 162.5q147 0 223 -75.5t76 -220.5q0 -252 -122 -419.5t-345 -167.5zM1852 252q31 68 44 146.5t13 161.5q0 82 -34 124t-114 42q-72 0 -123 -42t-84 -110q-29 -60 -44 -142
t-15 -165q0 -81 33.5 -124.5t116.5 -43.5q72 0 124 42t83 111zM1743 1489l-1042 -1489h-167l1042 1489h167z" />
    <glyph glyph-name="ampersand" unicode="&#x26;" horiz-adv-x="1488" 
d="M1437 0h-234l-182 221q-133 -137 -260.5 -194.5t-262.5 -57.5q-181 0 -295.5 99.5t-114.5 258.5q0 104 35 184.5t94 147.5q55 62 127.5 109t139.5 80q-65 55 -110.5 122t-45.5 147q0 74 28.5 141.5t92.5 130.5q59 57 150.5 94t206.5 37q157 0 252 -77.5t95 -201.5
q0 -41 -16.5 -101t-58.5 -115q-46 -60 -124 -111.5t-208 -86.5l307 -367q51 83 83 202t55 247h201l-20 -96q-24 -115 -81.5 -231t-147.5 -228zM894 1047q28 41 40.5 88t12.5 98q0 78 -52.5 123.5t-122.5 45.5q-107 0 -175 -75.5t-68 -180.5q0 -56 32 -112t115 -125
q82 23 134.5 57.5t83.5 80.5zM945 311l-382 464q-27 -13 -77.5 -48.5t-84.5 -72.5q-40 -44 -68 -110.5t-28 -149.5q0 -123 70 -196t202 -73q96 0 190 45.5t178 140.5z" />
    <glyph glyph-name="quotesingle" unicode="'" horiz-adv-x="550" 
d="M619 1556l-182 -579h-136l96 579h222z" />
    <glyph glyph-name="parenleft" unicode="(" horiz-adv-x="930" 
d="M560 -412h-212q-90 146 -148 316t-58 355q0 190 46 366.5t135 347.5q85 162 203.5 307t261.5 276h226v-10q-114 -84 -237.5 -213t-222.5 -285q-101 -159 -164.5 -350.5t-63.5 -403.5q0 -217 63 -395.5t171 -300.5v-10z" />
    <glyph glyph-name="parenright" unicode=")" horiz-adv-x="930" 
d="M792 885q0 -189 -47 -369.5t-134 -344.5t-206 -310.5t-259 -272.5h-226v10q115 86 237.5 211.5t222.5 286.5q114 184 171 369t57 385q0 213 -62.5 392.5t-171.5 303.5v10h212q89 -145 147.5 -314.5t58.5 -356.5z" />
    <glyph glyph-name="asterisk" unicode="*" horiz-adv-x="1302" 
d="M1255 889l-60 -104l-364 217l6 -366h-123l6 366l-364 -218l-61 104l385 208l-385 208l61 104l365 -216l-7 364h123l-7 -363l365 214l60 -104l-383 -205z" />
    <glyph glyph-name="plus" unicode="+" horiz-adv-x="1676" 
d="M1509 572h-545v-545h-166v545h-545v160h545v545h166v-545h545v-160z" />
    <glyph glyph-name="comma" unicode="," horiz-adv-x="745" 
d="M521 285l-434 -655h-146l324 655h256z" />
    <glyph glyph-name="hyphen" unicode="-" horiz-adv-x="930" 
d="M778 561h-624l42 181h624z" />
    <glyph glyph-name="hyphen" unicode="&#xad;" horiz-adv-x="930" 
d="M778 561h-624l42 181h624z" />
    <glyph glyph-name="period" unicode="." horiz-adv-x="745" 
d="M364 0h-241l66 285h241z" />
    <glyph glyph-name="slash" unicode="/" horiz-adv-x="930" 
d="M1042 1556l-1049 -1860h-179l1046 1860h182z" />
    <glyph glyph-name="zero" unicode="0" horiz-adv-x="1302" 
d="M1256 1082q0 -198 -73.5 -466t-182.5 -412q-93 -121 -205.5 -178t-260.5 -57q-203 0 -302 108t-99 329q0 179 69.5 451t186.5 427q90 120 205.5 177.5t261.5 57.5q202 0 301 -108.5t99 -328.5zM1054 1085q0 134 -50.5 205t-180.5 71q-96 0 -169.5 -42t-134.5 -148
q-70 -123 -127 -366.5t-57 -401.5q0 -134 50.5 -205t180.5 -71q91 0 169 44t135 146q70 125 127 368.5t57 399.5z" />
    <glyph glyph-name="one" unicode="1" horiz-adv-x="1302" 
d="M963 0h-808l34 145h306l234 1012h-310l29 129q173 0 268.5 48.5t127.5 159.5h156l-311 -1349h308z" />
    <glyph glyph-name="two" unicode="2" horiz-adv-x="1302" 
d="M1043 0h-1009l47 209q141 103 239.5 175.5t237.5 183.5q244 195 344.5 328.5t100.5 259.5q0 98 -69.5 148t-178.5 50q-89 0 -203.5 -33.5t-224.5 -96.5h-10l40 203q79 36 202 64.5t236 28.5q201 0 310 -87.5t109 -236.5q0 -161 -92 -304.5t-322 -334.5
q-137 -113 -281.5 -219.5t-238.5 -173.5h800z" />
    <glyph glyph-name="three" unicode="3" horiz-adv-x="1302" 
d="M952 131q-88 -77 -202.5 -119.5t-265.5 -42.5q-121 0 -234.5 30.5t-191.5 72.5l47 192h15q69 -52 173 -90.5t220 -38.5q180 0 295 107t115 278q0 105 -73 157t-227 52h-95l39 159h95q169 0 277 77.5t108 210.5q0 84 -64.5 131t-190.5 47q-104 0 -222 -38t-209 -92h-10
l43 202q80 35 203.5 64.5t234.5 29.5q197 0 310.5 -78.5t113.5 -214.5q0 -148 -109.5 -262.5t-276.5 -145.5v-10q39 -8 86.5 -29.5t83.5 -54.5q38 -34 63.5 -86t25.5 -123q0 -109 -47 -210.5t-130 -174.5z" />
    <glyph glyph-name="four" unicode="4" horiz-adv-x="1302" 
d="M1175 422h-221l-98 -422h-194l98 422h-712l52 227l914 840h186l-211 -915h221zM795 574l156 673l-730 -673h574z" />
    <glyph glyph-name="five" unicode="5" horiz-adv-x="1302" 
d="M979 145q-88 -83 -205 -129.5t-275 -46.5q-122 0 -230 30t-179 66l40 194h14q62 -47 167 -85.5t218 -38.5q186 0 300 108t114 283q0 68 -26 113t-70 73q-45 28 -106.5 40t-129.5 12q-88 0 -176.5 -13t-150.5 -25l176 763h893l-39 -168h-699l-94 -410q41 6 80 9t79 3
q225 0 350.5 -97t125.5 -264q0 -120 -46 -228t-131 -189z" />
    <glyph glyph-name="six" unicode="6" horiz-adv-x="1302" 
d="M595 -31q-219 0 -340 135.5t-121 370.5q0 216 61 402.5t179 331.5q116 141 288.5 224.5t386.5 83.5q63 0 105 -7t70 -16l-35 -177h-10q-23 11 -78.5 23t-114.5 12q-214 0 -381 -139.5t-225 -362.5q87 49 186 77t197 28q92 0 167.5 -23t135.5 -73q64 -54 95 -128t31 -170
q0 -246 -169.5 -419t-427.5 -173zM984 539q0 126 -74 192.5t-221 66.5q-76 0 -162.5 -23t-170.5 -67q-10 -43 -16.5 -109.5t-6.5 -129.5q0 -97 25.5 -163t62.5 -104q40 -41 91.5 -59t106.5 -18q162 0 263.5 114t101.5 300z" />
    <glyph glyph-name="seven" unicode="7" horiz-adv-x="1302" 
d="M1333 1266l-956 -1266h-227l1017 1321h-848l38 168h1027z" />
    <glyph glyph-name="eight" unicode="8" horiz-adv-x="1302" 
d="M1003 128q-83 -74 -192 -118t-255 -44q-214 0 -339.5 103.5t-125.5 265.5q0 151 91 271.5t265 192.5v5q-90 54 -135 121.5t-45 153.5q0 180 166.5 312t404.5 132q197 0 311.5 -90t114.5 -229q0 -120 -82.5 -234.5t-238.5 -179.5v-6q111 -52 168.5 -126t57.5 -186
q0 -87 -44 -181t-122 -163zM1062 1179q0 87 -69 145.5t-185 58.5q-140 0 -237 -75.5t-97 -189.5q0 -57 32.5 -104.5t96.5 -81.5q37 -19 96 -45t129 -49q125 74 179.5 156.5t54.5 184.5zM869 219q44 47 66.5 107t22.5 121q0 68 -36 118t-123 94q-43 21 -95.5 40t-139.5 53
q-127 -62 -195 -164t-68 -217q0 -112 75.5 -187.5t200.5 -75.5q102 0 175.5 31.5t116.5 79.5z" />
    <glyph glyph-name="nine" unicode="9" horiz-adv-x="1302" 
d="M1248 1013q0 -212 -63 -405t-180 -332q-121 -144 -290.5 -224.5t-381.5 -80.5q-55 0 -98 5.5t-77 17.5l35 177h10q24 -11 76.5 -23t116.5 -12q214 0 382 141t224 361q-99 -53 -186 -79t-197 -26q-88 0 -166.5 23.5t-136.5 72.5q-59 49 -92.5 122t-33.5 176
q0 247 172 419.5t426 172.5q221 0 340.5 -136t119.5 -370zM1049 1019q0 95 -24 160.5t-64 106.5q-39 40 -90.5 58.5t-107.5 18.5q-169 0 -267 -119t-98 -295q0 -126 74 -192.5t221 -66.5q76 0 163.5 23t169.5 67q11 52 17 106t6 133z" />
    <glyph glyph-name="colon" unicode=":" horiz-adv-x="930" 
d="M649 832h-241l66 285h241zM457 0h-241l66 285h241z" />
    <glyph glyph-name="semicolon" unicode=";" horiz-adv-x="930" 
d="M649 832h-241l66 285h241zM603 285l-434 -655h-146l324 655h256z" />
    <glyph glyph-name="semicolon" unicode="&#x37e;" horiz-adv-x="930" 
d="M649 832h-241l66 285h241zM603 285l-434 -655h-146l324 655h256z" />
    <glyph glyph-name="less" unicode="&#x3c;" horiz-adv-x="1676" 
d="M1451 77l-1154 513v124l1154 513v-180l-910 -395l910 -395v-180z" />
    <glyph glyph-name="equal" unicode="=" horiz-adv-x="1676" 
d="M1474 782h-1186v160h1186v-160zM1474 362h-1186v160h1186v-160z" />
    <glyph glyph-name="greater" unicode="&#x3e;" horiz-adv-x="1676" 
d="M1465 590l-1154 -513v180l910 395l-910 395v180l1154 -513v-124z" />
    <glyph glyph-name="question" unicode="?" horiz-adv-x="1117" 
d="M971 846q-76 -69 -170.5 -124t-200.5 -105l-49 -217h-179l70 305q75 35 176 87.5t158 99.5q80 66 117 132.5t37 151.5q0 87 -64.5 133t-170.5 46q-96 0 -200.5 -30t-180.5 -73h-10l45 195q74 27 185.5 49.5t207.5 22.5q189 0 293 -83.5t104 -221.5q0 -116 -45.5 -207
t-122.5 -161zM474 0h-204l49 211h204z" />
    <glyph glyph-name="at" unicode="@" horiz-adv-x="2048" 
d="M1659 157h-461v116q-79 -59 -152.5 -91.5t-157.5 -32.5q-134 0 -212.5 86t-78.5 248q0 148 47 266.5t123 203.5q71 81 170 128t191 47q73 0 136.5 -17.5t117.5 -48.5l11 48h159l-196 -842h258q84 112 128 277.5t44 289.5q0 267 -154 411.5t-430 144.5q-177 0 -335 -73
t-277 -198q-116 -122 -185.5 -288.5t-69.5 -343.5q0 -269 161 -429t442 -160q86 0 186 13t176 34l-26 -135q-97 -20 -173.5 -28.5t-185.5 -8.5q-328 0 -525 187.5t-197 499.5q0 217 83 410t223 337q137 142 327 226.5t392 84.5q332 0 519 -176t187 -488q0 -193 -69.5 -374
t-195.5 -324zM1227 408l124 527q-55 28 -108.5 41t-114.5 13q-150 0 -254 -133t-104 -347q0 -101 44.5 -156.5t143.5 -55.5q68 0 137.5 34t131.5 77z" />
    <glyph glyph-name="A" unicode="A" horiz-adv-x="1398" 
d="M1261 0h-201l-50 419h-642l-244 -419h-209l886 1489h262zM988 581l-93 735l-432 -735h525z" />
    <glyph glyph-name="B" unicode="B" horiz-adv-x="1404" 
d="M1081 120q-97 -65 -203 -92.5t-261 -27.5h-547l343 1489h428q163 0 242.5 -11t145.5 -51q55 -34 82.5 -86.5t27.5 -116.5q0 -129 -73 -228t-202 -153v-8q120 -27 183.5 -101t63.5 -190q0 -127 -63.5 -240.5t-166.5 -183.5zM1124 1169q0 42 -14 69.5t-40 45.5
q-42 28 -105 35.5t-163 7.5h-226l-102 -442h260q86 0 150 12.5t112 39.5q62 36 95 102.5t33 129.5zM1102 530q0 56 -19 90.5t-68 64.5q-40 25 -102.5 33t-173.5 8h-301l-131 -564h273q133 0 216.5 14.5t144.5 51.5q79 47 120 128.5t41 173.5z" />
    <glyph glyph-name="C" unicode="C" horiz-adv-x="1430" 
d="M738 -27q-283 0 -444 146.5t-161 415.5q0 206 62 384t178 312q115 132 283 208.5t375 76.5q129 0 244 -31.5t236 -99.5l-45 -224h-15q-33 33 -66.5 61.5t-100.5 62.5q-55 29 -131 48.5t-168 19.5q-140 0 -257 -58.5t-203 -163.5q-84 -102 -132 -248t-48 -311
q0 -206 107 -320.5t309 -114.5q95 0 180.5 21.5t155.5 54.5q65 31 117 65t89 63h14l-47 -230q-105 -53 -241.5 -95.5t-290.5 -42.5z" />
    <glyph glyph-name="D" unicode="D" horiz-adv-x="1568" 
d="M1519 918q0 -244 -124 -462t-339 -337q-132 -71 -270 -95t-313 -24h-402l344 1489h346q162 0 295.5 -22.5t244.5 -96.5q106 -71 162 -185.5t56 -266.5zM1310 901q0 114 -40.5 196.5t-122.5 137.5q-81 54 -173 72.5t-233 18.5h-165l-270 -1163h207q143 0 255.5 23.5
t212.5 80.5q161 92 245 265.5t84 368.5z" />
    <glyph glyph-name="E" unicode="E" horiz-adv-x="1295" 
d="M1395 1489l-39 -169h-783l-96 -420h783l-39 -168h-783l-130 -563h783l-39 -169h-981l343 1489h981z" />
    <glyph glyph-name="F" unicode="F" horiz-adv-x="1177" 
d="M1328 1320h-752l-101 -432h647l-39 -168h-646l-167 -720h-200l344 1489h952z" />
    <glyph glyph-name="G" unicode="G" horiz-adv-x="1588" 
d="M787 -29q-308 0 -481 152t-173 432q0 206 63.5 381t184.5 305q120 129 294.5 202t392.5 73q131 0 261.5 -31.5t266.5 -102.5l-45 -226h-18q-111 104 -241.5 150.5t-280.5 46.5q-165 0 -289 -65t-209 -173q-83 -106 -125.5 -247t-42.5 -284q0 -215 117.5 -332t347.5 -117
q101 0 189.5 18.5t166.5 47.5l84 381h-397l38 167h596l-148 -639q-66 -27 -119 -48.5t-133 -44.5q-69 -20 -142.5 -33t-157.5 -13z" />
    <glyph glyph-name="H" unicode="H" horiz-adv-x="1539" 
d="M1553 1489l-343 -1489h-198l169 732h-743l-169 -732h-198l343 1489h198l-135 -589h743l135 589h198z" />
    <glyph glyph-name="I" unicode="I" horiz-adv-x="862" 
d="M597 0h-590l33 145h195l278 1199h-195l33 145h590l-33 -145h-195l-278 -1199h195z" />
    <glyph glyph-name="J" unicode="J" horiz-adv-x="931" 
d="M709 387q-46 -197 -188 -302.5t-344 -105.5q-48 0 -126 8.5t-129 20.5l42 178h11q39 -14 95 -29t119 -15q91 0 151 23t94 64q36 43 57 103t36 130l200 876h-324l35 151h524z" />
    <glyph glyph-name="K" unicode="K" horiz-adv-x="1419" 
d="M1285 0h-234l-459 665l-204 -173l-113 -492h-200l344 1489h200l-180 -773l875 773h252l-817 -713z" />
    <glyph glyph-name="L" unicode="L" horiz-adv-x="1140" 
d="M1013 0h-943l344 1489h200l-305 -1320h743z" />
    <glyph glyph-name="M" unicode="M" horiz-adv-x="1726" 
d="M1398 0h-200l294 1265l-605 -855h-118l-210 894l-302 -1304h-187l344 1489h272l201 -829l580 829h275z" />
    <glyph glyph-name="N" unicode="N" horiz-adv-x="1532" 
d="M1208 0h-236l-407 1332l-308 -1332h-187l344 1489h298l372 -1216l281 1216h187z" />
    <glyph glyph-name="O" unicode="O" horiz-adv-x="1612" 
d="M1563 962q0 -194 -58.5 -374t-169.5 -317q-114 -141 -274 -221.5t-361 -80.5q-266 0 -416 145.5t-150 413.5q0 204 60 381t173 316q110 134 272.5 214.5t356.5 80.5q265 0 416 -144.5t151 -413.5zM1184 370q84 114 127 254.5t43 309.5q0 204 -102.5 313.5t-286.5 109.5
q-143 0 -258 -65.5t-198 -177.5q-80 -110 -123 -255.5t-43 -299.5q0 -206 102.5 -316.5t287.5 -110.5q141 0 256.5 65t194.5 173z" />
    <glyph glyph-name="P" unicode="P" horiz-adv-x="1235" 
d="M1095 709q-92 -76 -205.5 -113.5t-273.5 -37.5h-217l-129 -558h-200l344 1489h392q136 0 225 -24t146 -69q59 -45 90 -109.5t31 -155.5q0 -122 -53 -231.5t-150 -190.5zM1086 1097q0 51 -17 95t-53 72q-43 33 -101.5 47.5t-152.5 14.5h-185l-141 -607h178q120 0 199.5 22
t137.5 70q68 57 101.5 128t33.5 158z" />
    <glyph glyph-name="Q" unicode="Q" horiz-adv-x="1612" 
d="M1184 369q83 114 126 255t43 310q0 204 -102 313.5t-286 109.5q-143 0 -258 -65.5t-198 -177.5q-80 -110 -122.5 -255.5t-42.5 -299.5q0 -206 102 -317t287 -111q141 0 256.5 65t194.5 173zM985 21l-4 -38t-2 -30q0 -105 50.5 -143t145.5 -38q49 0 101 11.5t86 23.5h27
l-35 -172q-62 -15 -121.5 -21.5t-120.5 -6.5q-153 0 -238.5 76.5t-85.5 218.5q0 18 2 35t4 38q-21 -2 -44 -3.5t-50 -1.5q-266 0 -416.5 145t-150.5 413q0 198 60.5 378.5t173.5 318.5q109 134 272 214.5t357 80.5q265 0 416.5 -144.5t151.5 -413.5q0 -316 -154 -579
t-425 -362z" />
    <glyph glyph-name="R" unicode="R" horiz-adv-x="1424" 
d="M1093 1119q0 53 -16 89.5t-49 62.5q-38 31 -93 43t-135 12h-224l-133 -574h210q98 0 170 18t131 63q66 50 102.5 125.5t36.5 160.5zM1315 0h-233l-392 595h-283l-137 -595h-200l343 1489h406q136 0 221 -17.5t148 -63.5q56 -41 88 -99t32 -145q0 -186 -116.5 -326.5
t-305.5 -195.5z" />
    <glyph glyph-name="S" unicode="S" horiz-adv-x="1400" 
d="M585 -27q-145 0 -276 30.5t-257 93.5l48 227h14q96 -91 235.5 -139.5t269.5 -48.5q213 0 326.5 84.5t113.5 215.5q0 69 -40.5 115t-118.5 68q-65 18 -154.5 34.5t-170.5 35.5q-157 35 -243 120t-86 211q0 213 180.5 354.5t466.5 141.5q156 0 283.5 -32.5t219.5 -76.5
l-45 -213h-14q-71 65 -202.5 112t-276.5 47q-182 0 -290.5 -80t-108.5 -203q0 -66 39 -116t139 -75q64 -15 170 -36.5t178 -40.5q142 -39 215.5 -116t73.5 -194q0 -98 -48 -195t-134 -166q-92 -74 -215.5 -116t-291.5 -42z" />
    <glyph glyph-name="T" unicode="T" horiz-adv-x="1262" 
d="M1438 1320h-531l-305 -1320h-200l305 1320h-531l38 169h1262z" />
    <glyph glyph-name="U" unicode="U" horiz-adv-x="1499" 
d="M1330 598q-39 -167 -99 -284.5t-159 -198.5q-92 -74 -199.5 -110t-252.5 -36q-235 0 -350 106t-115 293q0 63 8.5 117t21.5 113l206 891h200l-208 -901q-12 -47 -19.5 -105.5t-7.5 -91.5q0 -126 75 -192.5t224 -66.5q107 0 188 33t141 99q54 62 86.5 137.5t56.5 181.5
l209 906h200z" />
    <glyph glyph-name="V" unicode="V" horiz-adv-x="1398" 
d="M1571 1489l-886 -1489h-264l-198 1489h206l163 -1308l768 1308h211z" />
    <glyph glyph-name="W" unicode="W" horiz-adv-x="2028" 
d="M2138 1489l-715 -1489h-229l-44 1233l-578 -1233h-220l-61 1489h201l40 -1236l583 1236h201l40 -1248l587 1248h195z" />
    <glyph glyph-name="X" unicode="X" horiz-adv-x="1403" 
d="M640 749l-344 740h216l270 -595l547 595h223l-695 -742l348 -747h-217l-273 602l-555 -602h-222z" />
    <glyph glyph-name="Y" unicode="Y" horiz-adv-x="1260" 
d="M1463 1489l-713 -836l-151 -653h-200l146 632l-332 857h212l258 -669l563 669h217z" />
    <glyph glyph-name="Z" unicode="Z" horiz-adv-x="1403" 
d="M1164 0h-1162l41 182l1153 1138h-873l39 169h1114l-40 -172l-1163 -1148h930z" />
    <glyph glyph-name="bracketleft" unicode="[" horiz-adv-x="930" 
d="M540 -392h-520l450 1948h520l-31 -136h-346l-388 -1676h346z" />
    <glyph glyph-name="backslash" unicode="\" horiz-adv-x="930" 
d="M805 -304h-167l-389 1860h170z" />
    <glyph glyph-name="bracketright" unicode="]" horiz-adv-x="930" 
d="M472 -392h-520l30 136h346l390 1676h-346l30 136h520z" />
    <glyph glyph-name="asciicircum" unicode="^" horiz-adv-x="1676" 
d="M1540 684h-198l-455 627l-454 -629h-197l589 807h126z" />
    <glyph glyph-name="underscore" unicode="_" horiz-adv-x="1302" 
d="M1136 -180l-28 -120h-1310l28 120h1310z" />
    <glyph glyph-name="grave" unicode="`" horiz-adv-x="1302" 
d="M907 1302h-145l-197 374h236z" />
    <glyph glyph-name="a" unicode="a" horiz-adv-x="1230" 
d="M874 589q-154 -6 -273.5 -23.5t-197.5 -50.5q-81 -33 -123 -89.5t-42 -140.5q0 -72 49 -110t152 -38q91 0 185.5 40.5t176.5 97.5zM765 119q-27 -16 -73.5 -45.5t-94.5 -50.5q-51 -23 -114 -38.5t-145 -15.5q-133 0 -216 77.5t-83 202.5q0 133 58.5 224.5t173.5 149.5
q113 57 272.5 82.5t363.5 31.5q6 28 10 48.5t4 42.5q0 48 -19 78t-54 48t-81.5 24.5t-102.5 6.5q-85 0 -194 -27.5t-177 -54.5h-10l37 188q57 15 167 34t211 19q208 0 312 -65t104 -206q0 -27 -4.5 -57.5t-10.5 -57.5l-175 -758h-187z" />
    <glyph glyph-name="b" unicode="b" horiz-adv-x="1276" 
d="M1191 764q0 -163 -51 -311t-136 -253q-89 -110 -199 -170.5t-243 -60.5q-89 0 -166.5 23.5t-138.5 62.5l-25 -55h-176l359 1556h188l-128 -556q93 65 182 106.5t198 41.5q163 0 249.5 -101t86.5 -283zM882 315q56 87 84 191t28 222q0 119 -52 183.5t-166 64.5
q-83 0 -172 -41t-166 -93l-147 -639q64 -34 124.5 -53t144.5 -19q104 0 186 51t136 133z" />
    <glyph glyph-name="c" unicode="c" horiz-adv-x="1067" 
d="M540 -25q-106 0 -187.5 25t-142.5 79q-59 52 -91 131t-32 184q0 157 49 293t139 239q87 100 215 158.5t276 58.5q98 0 184.5 -27t152.5 -64l-41 -203h-11q-20 18 -50 42t-71 45q-41 22 -91 36.5t-114 14.5q-194 0 -316.5 -164t-122.5 -399q0 -141 72.5 -217t206.5 -76
q63 0 126 18t107 39q49 23 91 49t61 39h11l-40 -205q-87 -39 -184 -67.5t-197 -28.5z" />
    <glyph glyph-name="d" unicode="d" horiz-adv-x="1276" 
d="M1322 1556l-360 -1556h-188l27 117q-127 -87 -204.5 -117.5t-168.5 -30.5q-158 0 -250.5 100t-92.5 291q0 161 50 304.5t136 251.5q85 107 201 169.5t246 62.5q89 0 164 -19t140 -57l112 484h188zM986 916q-67 35 -131.5 51.5t-137.5 16.5q-104 0 -185.5 -50t-139.5 -137
q-53 -79 -81.5 -190t-28.5 -215q0 -122 52.5 -186.5t170.5 -64.5q84 0 171.5 42t161.5 92z" />
    <glyph glyph-name="e" unicode="e" horiz-adv-x="1220" 
d="M960 680q5 29 7 49t2 44q0 107 -58.5 167t-187.5 60q-142 0 -252 -88t-149 -232h638zM584 -26q-232 0 -364 109t-132 319q0 307 194 526.5t480 219.5q190 0 291 -94.5t101 -265.5q0 -30 -8.5 -95t-27.5 -151h-823q-6 -29 -8.5 -57t-2.5 -52q0 -141 86 -221.5t244 -80.5
q110 0 226.5 43t195.5 97h11l-41 -203q-50 -18 -90 -33t-102 -30t-110 -23t-120 -8z" />
    <glyph glyph-name="f" unicode="f" horiz-adv-x="720" 
d="M965 1381h-10q-29 10 -77 19t-86 9q-123 0 -184.5 -62t-92.5 -192l-9 -38h339l-36 -150h-333l-218 -967h-190l218 967h-127l36 150h127l8 37q41 196 160.5 304t307.5 108q63 0 114 -6t92 -14z" />
    <glyph glyph-name="g" unicode="g" horiz-adv-x="1273" 
d="M1217 1117l-227 -993q-66 -284 -216.5 -415.5t-418.5 -131.5q-86 0 -173.5 13t-160.5 35l43 187h10q56 -25 151 -48t179 -23q95 0 161.5 24.5t109.5 66.5q42 42 68.5 97.5t41.5 124.5l23 98q-101 -68 -178 -101.5t-197 -33.5q-163 0 -255 99.5t-92 280.5
q0 145 47.5 281.5t132.5 242.5q83 103 199.5 165t249.5 62q96 0 171.5 -22t131.5 -57l23 48h176zM983 916q-64 33 -131.5 51.5t-136.5 18.5q-98 0 -178.5 -44.5t-138.5 -123.5q-55 -74 -85.5 -178.5t-30.5 -208.5q0 -118 54 -182.5t173 -64.5q83 0 168 35t167 88z" />
    <glyph glyph-name="h" unicode="h" horiz-adv-x="1296" 
d="M1175 862q0 -24 -4.5 -65t-12.5 -72l-168 -725h-188l147 636q12 53 18.5 92.5t6.5 78.5q0 84 -41.5 126.5t-149.5 42.5q-76 0 -167.5 -42t-178.5 -100l-193 -834h-188l359 1556h188l-130 -563q107 75 200.5 115t192.5 40q146 0 227.5 -73.5t81.5 -212.5z" />
    <glyph glyph-name="i" unicode="i" horiz-adv-x="562" 
d="M604 1499l-45 -195h-212l45 195h212zM504 1117l-258 -1117h-188l258 1117h188z" />
    <glyph glyph-name="j" unicode="j" horiz-adv-x="705" 
d="M707 1304h-214l45 195h214zM387 -27q-45 -194 -159.5 -295t-284.5 -101q-40 0 -105 8t-107 20l39 171h10q29 -13 68.5 -25.5t91.5 -12.5q70 0 117.5 21.5t77.5 64.5q29 42 48 104.5t34 130.5l209 907h-233l35 151h423z" />
    <glyph glyph-name="k" unicode="k" horiz-adv-x="1202" 
d="M1082 0h-228l-357 491l-162 -131l-82 -360h-190l360 1556h190l-232 -1000l655 561h247l-637 -528z" />
    <glyph glyph-name="l" unicode="l" horiz-adv-x="562" 
d="M606 1556l-360 -1556h-188l360 1556h188z" />
    <glyph glyph-name="m" unicode="m" horiz-adv-x="1993" 
d="M1872 870q0 -33 -4.5 -70t-13.5 -75l-168 -725h-188l147 636q12 53 19.5 98t7.5 84q0 76 -38 117t-145 41q-79 0 -167 -44t-175 -103q-2 -25 -6.5 -57t-10.5 -57l-165 -715h-188l147 636q13 62 21 101.5t8 80.5q0 91 -50 124.5t-135 33.5q-60 0 -134 -30.5t-197 -111.5
l-193 -834h-188l258 1117h188l-29 -124q105 73 194.5 114t188.5 41q113 0 183.5 -48t93.5 -133q132 96 237 138.5t207 42.5q147 0 221 -73t74 -205z" />
    <glyph glyph-name="n" unicode="n" horiz-adv-x="1296" 
d="M1175 862q0 -24 -4.5 -65t-12.5 -72l-168 -725h-188l147 636q12 53 18.5 92.5t6.5 78.5q0 84 -41.5 126.5t-149.5 42.5q-76 0 -167.5 -42t-178.5 -100l-193 -834h-188l258 1117h188l-29 -124q107 75 200.5 115t192.5 40q146 0 227.5 -73.5t81.5 -212.5z" />
    <glyph glyph-name="o" unicode="o" horiz-adv-x="1243" 
d="M1154 722q0 -150 -46 -288t-130 -240q-87 -106 -201 -165.5t-266 -59.5q-199 0 -310.5 113.5t-111.5 313.5q0 150 45.5 286t131.5 242q83 102 203.5 163t263.5 61q193 0 307 -110t114 -316zM848 300q54 80 82.5 185t28.5 222q0 140 -67 212t-189 72q-97 0 -174 -46.5
t-133 -127.5q-54 -79 -83 -185t-29 -220q0 -138 67 -212t190 -74q96 0 174 46t133 128z" />
    <glyph glyph-name="p" unicode="p" horiz-adv-x="1276" 
d="M1191 764q0 -166 -51.5 -312t-136.5 -248q-86 -105 -200 -165.5t-243 -60.5q-90 0 -165.5 20.5t-137.5 59.5l-108 -470h-188l353 1529h188l-27 -117q93 65 183 106.5t199 41.5q163 0 248.5 -101t85.5 -283zM994 728q0 119 -52 183.5t-166 64.5q-83 0 -172 -41t-166 -93
l-146 -633q65 -35 124 -52t143 -17q103 0 185.5 50t136.5 130q57 84 85 187t28 221z" />
    <glyph glyph-name="q" unicode="q" horiz-adv-x="1276" 
d="M1220 1117l-353 -1529h-188l125 538q-95 -67 -180 -107.5t-196 -40.5q-158 0 -250.5 95.5t-92.5 286.5q0 161 50 304.5t136 251.5q85 107 201 169.5t246 62.5q89 0 164 -19t140 -57l22 45h176zM986 916q-67 35 -131.5 52t-137.5 17q-107 0 -188 -51.5t-137 -135.5
q-53 -79 -81.5 -190.5t-28.5 -215.5q0 -122 52.5 -182t170.5 -60q84 0 172.5 42t162.5 92z" />
    <glyph glyph-name="r" unicode="r" horiz-adv-x="874" 
d="M958 919h-10q-40 10 -74.5 14.5t-83.5 4.5q-94 0 -186.5 -42.5t-177.5 -102.5l-180 -793h-190l255 1117h190l-38 -165q133 93 225.5 129t177.5 36q49 0 71 -2.5t64 -9.5z" />
    <glyph glyph-name="s" unicode="s" horiz-adv-x="1067" 
d="M405 -27q-125 0 -223.5 31t-164.5 67l42 201h10q21 -18 54.5 -42.5t85.5 -48.5q47 -23 107.5 -39.5t129.5 -16.5q141 0 221 52t80 153q0 53 -41 81.5t-118 46.5q-39 9 -93.5 20t-110.5 26q-117 33 -173 95.5t-56 152.5q0 78 34 146t101 125q64 54 163 87.5t220 33.5
q100 0 199.5 -25t162.5 -62l-40 -192h-10q-16 13 -48.5 35t-82.5 45q-43 19 -100.5 33t-119.5 14q-125 0 -203 -52.5t-78 -143.5q0 -50 38 -83.5t116 -52.5q49 -12 102.5 -22.5t103.5 -22.5q116 -29 174.5 -90t58.5 -153q0 -77 -36.5 -150.5t-105.5 -127.5q-71 -57 -172 -89
t-227 -32z" />
    <glyph glyph-name="t" unicode="t" horiz-adv-x="807" 
d="M894 1117l-34 -152h-388l-120 -515q-10 -39 -18 -89.5t-8 -80.5q0 -73 37 -108.5t137 -35.5q41 0 97.5 14t76.5 22h10l-35 -162q-56 -14 -119.5 -23t-112.5 -9q-138 0 -213.5 60.5t-75.5 191.5q0 32 4.5 63.5t12.5 71.5l139 600h-127l34 152h127l75 321h188l-75 -321h388
z" />
    <glyph glyph-name="u" unicode="u" horiz-adv-x="1296" 
d="M1240 1117l-258 -1117h-188l29 124q-107 -73 -199.5 -114t-195.5 -41q-144 0 -225 72.5t-81 211.5q0 34 4.5 66t12.5 73l167 725h188l-147 -636q-9 -39 -17 -89t-8 -79q0 -86 43.5 -129t148.5 -43q74 0 169.5 43t176.5 99l192 834h188z" />
    <glyph glyph-name="v" unicode="v" horiz-adv-x="1210" 
d="M1266 1117l-710 -1117h-187l-191 1117h192l141 -889l548 889h207z" />
    <glyph glyph-name="w" unicode="w" horiz-adv-x="1676" 
d="M1705 1117l-519 -1117h-176l-112 863l-461 -863h-174l-70 1117h192l29 -864l456 864h157l109 -864l372 864h197z" />
    <glyph glyph-name="x" unicode="x" horiz-adv-x="1212" 
d="M505 565l-312 552h211l230 -426l416 426h232l-571 -563l313 -554h-212l-231 428l-419 -428h-231z" />
    <glyph glyph-name="y" unicode="y" horiz-adv-x="1210" 
d="M258 -412h-207l325 477l-202 1052h193l158 -831l534 831h205z" />
    <glyph glyph-name="z" unicode="z" horiz-adv-x="1076" 
d="M871 0h-902l32 139l830 828h-639l35 150h875l-31 -134l-834 -833h669z" />
    <glyph glyph-name="braceleft" unicode="{" horiz-adv-x="1300" 
d="M909 -392h-150q-151 0 -239 72t-88 208q0 50 10.5 98.5t20.5 93.5q12 50 21.5 99t9.5 101q0 114 -64.5 176t-214.5 62h-51l34 148h51q167 0 270 93t140 271l30 142q38 183 165 283.5t323 100.5h150l-28 -131h-114q-143 0 -216.5 -70t-100.5 -203l-35 -165
q-33 -148 -130 -238.5t-242 -144.5l-8 -24q104 -46 162 -119t58 -174q0 -60 -31.5 -188t-31.5 -188q0 -86 50.5 -129t162.5 -43h114z" />
    <glyph glyph-name="bar" unicode="|" horiz-adv-x="930" 
d="M595 -392h-174v1948h174v-1948z" />
    <glyph glyph-name="braceright" unicode="}" horiz-adv-x="1300" 
d="M1148 646l-34 -148h-51q-171 0 -272 -94t-138 -270l-30 -142q-41 -186 -165 -285t-323 -99h-150l28 131h114q136 0 211 64t106 209l35 165q16 77 51.5 136.5t85.5 107.5q49 47 110.5 80.5t124.5 58.5l8 24q-107 48 -163.5 121.5t-56.5 171.5q0 58 31.5 185.5t31.5 190.5
q0 90 -54.5 131t-158.5 41h-114l28 131h150q151 0 239 -72t88 -208q0 -48 -10 -98.5t-21 -93.5q-10 -40 -20.5 -96t-10.5 -104q0 -114 64.5 -176t214.5 -62h51z" />
    <glyph glyph-name="asciitilde" unicode="~" horiz-adv-x="1676" 
d="M1532 927q-2 -99 -22.5 -195t-65.5 -171q-46 -77 -111 -121t-165 -44q-60 0 -107.5 14.5t-86.5 41.5q-38 26 -68.5 58t-61.5 67q-26 30 -56 65.5t-56 61.5q-29 27 -61 44.5t-71 17.5q-93 0 -143.5 -88t-59.5 -283h-167q2 100 22.5 194.5t64.5 171.5q43 74 112 119.5
t165 45.5q61 0 109.5 -15.5t87.5 -41.5q37 -25 67.5 -57t60.5 -67q23 -27 56 -66t57 -61q30 -29 60.5 -45.5t69.5 -16.5q95 0 145.5 89.5t57.5 281.5h167z" />
    <glyph glyph-name="exclamdown" unicode="&#xa1;" horiz-adv-x="806" 
d="M671 1278h-204l49 211h204zM386 0h-224l275 1079h170z" />
    <glyph glyph-name="cent" unicode="&#xa2;" horiz-adv-x="1302" 
d="M1016 74q-75 -29 -173.5 -53t-206.5 -27l-82 -355h-118l83 359q-176 20 -276 123.5t-100 282.5q0 159 49 282.5t135 216.5q83 90 201.5 146t249.5 71l82 355h118l-82 -351q104 -3 186.5 -29t140.5 -57l-45 -184h-11q-68 61 -136.5 92.5t-165.5 37.5l-196 -845
q135 12 227.5 53t154.5 83h11zM552 142l194 840q-84 -12 -158.5 -55.5t-131.5 -113.5q-54 -66 -87.5 -166t-33.5 -214q0 -137 58 -206.5t159 -84.5z" />
    <glyph glyph-name="sterling" unicode="&#xa3;" horiz-adv-x="1302" 
d="M1051 0h-1036l43 184q133 33 213.5 140.5t112.5 291.5h-178l32 132h174l67 313q42 201 189 329t351 128q101 0 177 -16t140 -35l-47 -195h-10q-37 29 -106 57.5t-173 28.5q-134 0 -219 -83t-116 -233l-63 -294h417l-32 -132h-413l-12 -64q-24 -126 -110.5 -223.5
t-202.5 -153.5v-11h840z" />
    <glyph glyph-name="currency" unicode="&#xa4;" horiz-adv-x="1302" 
d="M1211 257l-110 -110l-236 234q-44 -26 -81 -37t-89 -11q-46 0 -89.5 12.5t-79.5 35.5l-236 -236l-109 113l233 234q-23 37 -35 81.5t-12 87.5q0 52 11 88.5t37 79.5l-234 237l111 110l235 -235q36 23 79.5 35.5t88.5 12.5q44 0 88 -12t81 -35l234 234l113 -109l-235 -237
q24 -38 36 -79.5t12 -89.5q0 -45 -12.5 -89t-35.5 -80zM875 661q0 73 -52.5 129t-127.5 56q-73 0 -126.5 -55t-53.5 -130q0 -74 52.5 -129.5t127.5 -55.5q73 0 126.5 54.5t53.5 130.5z" />
    <glyph glyph-name="yen" unicode="&#xa5;" horiz-adv-x="1302" 
d="M1401 1489l-635 -831l-22 -97h372l-30 -132h-370l-31 -133h371l-30 -132h-371l-38 -164h-188l38 164h-369l30 132h369l31 133h-370l30 132h372l18 76l-260 852h202l186 -659l483 659h212z" />
    <glyph glyph-name="yen" unicode="&#xffe5;" horiz-adv-x="1302" 
d="M1401 1489l-635 -831l-22 -97h372l-30 -132h-370l-31 -133h371l-30 -132h-371l-38 -164h-188l38 164h-369l30 132h369l31 133h-370l30 132h372l18 76l-260 852h202l186 -659l483 659h212z" />
    <glyph glyph-name="brokenbar" unicode="&#xa6;" horiz-adv-x="930" 
d="M595 758h-174v798h174v-798zM595 -392h-174v798h174v-798z" />
    <glyph glyph-name="section" unicode="&#xa7;" horiz-adv-x="1302" 
d="M865 263v-6q71 -37 105 -91t34 -122q0 -90 -40.5 -167t-116.5 -133q-84 -64 -196.5 -96.5t-247.5 -32.5q-87 0 -168 13.5t-167 44.5l37 187h10q78 -39 160 -63t190 -24q150 0 245 56.5t95 168.5q0 44 -21 72t-61 48q-43 22 -104.5 38.5t-131.5 36.5q-154 42 -237 110.5
t-83 181.5q0 68 23 125.5t63 107.5q39 49 90.5 86.5t108.5 67.5v6q-72 38 -105.5 90t-33.5 116q0 91 38 167.5t117 138.5q75 59 189 94t258 35q87 0 168.5 -14t166.5 -43l-37 -187h-10q-79 41 -166.5 64t-184.5 23q-156 0 -248 -60.5t-92 -158.5q0 -46 21 -76t61 -50
q37 -19 102 -38t135 -38q152 -41 236 -109t84 -182q0 -127 -79 -226t-207 -161zM876 403q35 39 57 82t22 105q0 67 -47.5 114t-135.5 72q-36 10 -83.5 23t-108.5 31q-28 -14 -60.5 -35.5t-72.5 -63.5q-33 -34 -57.5 -85t-24.5 -111q0 -66 45 -108t137 -68q36 -10 80.5 -23
t109.5 -32q34 17 67.5 37.5t71.5 61.5z" />
    <glyph glyph-name="dieresis" unicode="&#xa8;" horiz-adv-x="1302" 
d="M1072 1304h-201l45 195h201zM657 1304h-201l45 195h201z" />
    <glyph glyph-name="copyright" unicode="&#xa9;" horiz-adv-x="2048" 
d="M1932 655q0 -358 -253.5 -611.5t-611.5 -253.5t-611.5 253.5t-253.5 611.5t253.5 611.5t611.5 253.5t611.5 -253.5t253.5 -611.5zM1816 655q0 310 -219.5 532t-529.5 222t-529.5 -222t-219.5 -532t219.5 -532t529.5 -222t529.5 222t219.5 532zM1418 258
q-86 -39 -165.5 -58.5t-157.5 -19.5q-227 0 -359 123t-132 357q0 225 134.5 354t356.5 129q89 0 175 -24t148 -52v-181h-16q-54 40 -138.5 75t-173.5 35q-142 0 -221.5 -85.5t-79.5 -250.5q0 -159 76.5 -246t224.5 -87q83 0 161.5 29t150.5 81h16v-179z" />
    <glyph glyph-name="ordfeminine" unicode="&#xaa;" horiz-adv-x="1117" 
d="M936 554h-168l22 94q-63 -43 -143.5 -80t-196.5 -37q-111 0 -180.5 66.5t-69.5 172.5q0 121 53.5 198t148.5 123q92 43 221.5 62t289.5 27l5 26t5 47q0 60 -46 90t-160 30q-84 0 -175.5 -25t-129.5 -38h-14l37 165q48 12 142.5 28.5t171.5 16.5q178 0 262 -57t84 -171
q0 -18 -3 -47.5t-9 -52.5zM824 791l57 254q-75 -4 -178 -14.5t-163 -29.5q-72 -22 -117 -69t-45 -127q0 -57 39.5 -88t119.5 -31q82 0 154 32.5t133 72.5z" />
    <glyph glyph-name="guillemotleft" unicode="&#xab;" horiz-adv-x="1320" 
d="M1061 191l-432 419l20 85l624 418l-45 -198l-420 -273l294 -273zM624 162l-447 446l20 89l653 445l-47 -206l-439 -294l303 -294z" />
    <glyph glyph-name="logicalnot" unicode="&#xac;" horiz-adv-x="1676" 
d="M1493 57h-171v545h-1075v160h1246v-705z" />
    <glyph glyph-name="registered" unicode="&#xae;" horiz-adv-x="2048" 
d="M1932 655q0 -358 -253.5 -611.5t-611.5 -253.5t-611.5 253.5t-253.5 611.5t253.5 611.5t611.5 253.5t611.5 -253.5t253.5 -611.5zM1816 655q0 310 -219.5 532t-529.5 222t-529.5 -222t-219.5 -532t219.5 -532t529.5 -222t529.5 222t219.5 532zM1624 215h-223l-331 355
h-162v-355h-165v915h312q94 0 155 -7.5t120 -39.5q63 -34 92.5 -82.5t29.5 -121.5q0 -97 -56.5 -161.5t-155.5 -102.5zM1272 868q0 36 -14 64t-47 46q-31 17 -66 22t-88 5h-149v-309h127q62 0 107 9t74 33q31 25 43.5 55t12.5 75z" />
    <glyph glyph-name="overscore" unicode="&#xaf;" horiz-adv-x="1302" 
d="M1591 1788l-28 -120h-1310l28 120h1310z" />
    <glyph glyph-name="degree" unicode="&#xb0;" horiz-adv-x="1110" 
d="M1076 1119q0 -167 -115.5 -282t-282.5 -115q-165 0 -281.5 114.5t-116.5 282.5q0 167 115.5 282t282.5 115q168 0 283 -115t115 -282zM917 1119q0 103 -67.5 173.5t-171.5 70.5q-103 0 -171 -70t-68 -174q0 -105 69 -174.5t170 -69.5q103 0 171 70.5t68 173.5z" />
    <glyph glyph-name="plusminus" unicode="&#xb1;" horiz-adv-x="1676" 
d="M1504 179h-1246v158h540v422h-540v158h540v545h166v-545h540v-158h-540v-422h540v-158z" />
    <glyph glyph-name="twosuperior" unicode="&#xb2;" horiz-adv-x="1110" 
d="M952 566h-724l34 156q95 55 190.5 114.5t149.5 98.5q152 110 198.5 174t46.5 145q0 57 -43.5 89t-119.5 32q-84 0 -166.5 -29t-135.5 -61h-13l33 170q75 27 158.5 45.5t170.5 18.5q144 0 223 -63.5t79 -168.5q0 -106 -63 -200t-199 -192q-65 -46 -148 -96t-158 -92h518z
" />
    <glyph glyph-name="threesuperior" unicode="&#xb3;" horiz-adv-x="1110" 
d="M842 608q-61 -38 -143 -59.5t-173 -21.5q-90 0 -166.5 17.5t-143.5 45.5l39 169h13q34 -37 114 -66t171 -29q107 0 180 46.5t73 139.5q0 62 -51 87.5t-145 25.5h-127l31 136h113q117 0 177.5 50.5t60.5 123.5q0 50 -42 80.5t-129 30.5q-75 0 -170.5 -31t-143.5 -67h-14
l37 172q76 27 161 44.5t171 17.5q153 0 230.5 -58.5t77.5 -144.5q0 -99 -64 -169.5t-174 -102.5v-7q73 -14 125 -58.5t52 -120.5q0 -85 -38.5 -148.5t-101.5 -102.5z" />
    <glyph glyph-name="acute" unicode="&#xb4;" horiz-adv-x="1302" 
d="M1147 1676l-355 -374h-156l254 374h257z" />
    <glyph glyph-name="mu1" unicode="&#xb5;" horiz-adv-x="1314" 
d="M996 0h-180l17 118q-60 -57 -136.5 -98t-168.5 -41q-89 0 -149 39t-103 95l-121 -525h-190l353 1529h190l-194 -838q33 -56 96.5 -92t144.5 -36q96 0 173.5 37.5t143.5 96.5l192 832h190z" />
    <glyph glyph-name="paragraph" unicode="&#xb6;" horiz-adv-x="1302" 
d="M887 -363h-148l399 1726h-214l-399 -1726h-149l221 956q-167 4 -267 97t-100 248q0 244 168.5 397.5t450.5 153.5h466z" />
    <glyph glyph-name="middot" unicode="&#xb7;" horiz-adv-x="745" 
d="M482 511h-241l66 283h241z" />
    <glyph glyph-name="cedilla" unicode="&#xb8;" horiz-adv-x="1302" 
d="M770 20q0 -206 -107.5 -324.5t-299.5 -118.5q-43 0 -98 8.5t-97 21.5l33 148h9q24 -10 65.5 -23t91.5 -13q128 0 183.5 68t55.5 233h164z" />
    <glyph glyph-name="onesuperior" unicode="&#xb9;" horiz-adv-x="1110" 
d="M905 566h-617l27 118h231l133 575h-242l25 109q135 0 205.5 32t90.5 93h137l-187 -809h224z" />
    <glyph glyph-name="ordmasculine" unicode="&#xba;" horiz-adv-x="1117" 
d="M563 531q-173 0 -269 98.5t-96 272.5q0 258 152 438t383 180q167 0 265.5 -95.5t98.5 -273.5q0 -261 -149 -440.5t-385 -179.5zM916 1139q0 119 -54 178t-153 59q-146 0 -238 -131.5t-92 -328.5q0 -119 54 -180t155 -61q143 0 235.5 130.5t92.5 333.5z" />
    <glyph glyph-name="guillemotright" unicode="&#xbb;" horiz-adv-x="1320" 
d="M1166 608l-653 -446l47 206l439 294l-303 294l43 186l447 -445zM714 610l-624 -419l45 198l420 273l-294 273l41 178l432 -418z" />
    <glyph glyph-name="onequarter" unicode="&#xbc;" horiz-adv-x="2048" 
d="M524 565h-167l158 685h-209l26 113q104 0 171 21.5t96 108.5h139zM1568 1489l-1042 -1489h-167l1042 1489h167zM1791 223h-163l-51 -223h-152l51 223h-479l42 182l606 544h151l-138 -598h163zM1510 351l93 403l-458 -403h365z" />
    <glyph glyph-name="onehalf" unicode="&#xbd;" horiz-adv-x="2048" 
d="M534 565h-167l158 685h-209l26 113q104 0 171 21.5t96 108.5h139zM1576 1489l-1042 -1489h-167l1042 1489h167zM1880 -2h-724l34 156q95 55 190.5 114.5t149.5 98.5q152 110 198.5 174t46.5 145q0 57 -43.5 89t-119.5 32q-84 0 -166.5 -29t-135.5 -61h-13l33 170
q75 27 158.5 45.5t170.5 18.5q144 0 223 -63.5t79 -168.5q0 -106 -63 -200t-199 -192q-65 -46 -148 -96t-158 -92h518z" />
    <glyph glyph-name="threequarters" unicode="&#xbe;" horiz-adv-x="2048" 
d="M733 608q-61 -38 -143 -59.5t-173 -21.5q-90 0 -166.5 17.5t-143.5 45.5l39 169h13q34 -37 114 -66t171 -29q107 0 180 46.5t73 139.5q0 62 -51 87.5t-145 25.5h-127l31 136h113q117 0 177.5 50.5t60.5 123.5q0 50 -42 80.5t-129 30.5q-75 0 -170.5 -31t-143.5 -67h-14
l37 172q76 27 161 44.5t171 17.5q153 0 230.5 -58.5t77.5 -144.5q0 -99 -64 -169.5t-174 -102.5v-7q73 -14 125 -58.5t52 -120.5q0 -85 -38.5 -148.5t-101.5 -102.5zM1699 1489l-1042 -1489h-167l1042 1489h167zM1898 223h-163l-51 -223h-152l51 223h-479l42 182l606 544
h151l-138 -598h163zM1617 351l93 403l-458 -403h365z" />
    <glyph glyph-name="questiondown" unicode="&#xbf;" horiz-adv-x="1117" 
d="M236 643q76 69 170.5 124t200.5 105l49 217h179l-70 -305q-75 -35 -176 -87.5t-158 -99.5q-80 -66 -117 -132.5t-37 -151.5q0 -87 64.5 -133t170.5 -46q96 0 200.5 30t180.5 73h10l-45 -195q-74 -27 -185.5 -49.5t-207.5 -22.5q-189 0 -293 83.5t-104 221.5
q0 116 45.5 207t122.5 161zM733 1489h204l-49 -211h-204z" />
    <glyph glyph-name="Agrave" unicode="&#xc0;" horiz-adv-x="1398" 
d="M1261 0h-201l-50 419h-642l-244 -419h-209l886 1489h262zM988 581l-93 735l-432 -735h525zM1088 1675h-145l-197 374h236z" />
    <glyph glyph-name="Aacute" unicode="&#xc1;" horiz-adv-x="1398" 
d="M1261 0h-201l-50 419h-642l-244 -419h-209l886 1489h262zM988 581l-93 735l-432 -735h525zM1249 2049l-355 -374h-156l254 374h257z" />
    <glyph glyph-name="Acircumflex" unicode="&#xc2;" horiz-adv-x="1398" 
d="M1261 0h-201l-50 419h-642l-244 -419h-209l886 1489h262zM988 581l-93 735l-432 -735h525zM1264 1670h-152l-130 260l-241 -260h-162l311 379h228z" />
    <glyph glyph-name="Atilde" unicode="&#xc3;" horiz-adv-x="1398" 
d="M1261 0h-201l-50 419h-642l-244 -419h-209l886 1489h262zM988 581l-93 735l-432 -735h525zM1356 1992q-39 -156 -110.5 -231t-177.5 -75q-55 0 -94 18t-73 58t-63.5 63t-65.5 23q-46 0 -76.5 -42t-49.5 -124h-125q35 152 113 228.5t174 76.5q50 0 91.5 -19.5t73.5 -55.5
q35 -40 65.5 -61t66.5 -21q45 0 78 43.5t50 118.5h123z" />
    <glyph glyph-name="Adieresis" unicode="&#xc4;" horiz-adv-x="1398" 
d="M1261 0h-201l-50 419h-642l-244 -419h-209l886 1489h262zM988 581l-93 735l-432 -735h525zM1232 1677h-201l45 195h201zM817 1677h-201l45 195h201z" />
    <glyph glyph-name="Aring" unicode="&#xc5;" horiz-adv-x="1398" 
d="M1262 0h-203l-50 419h-640l-244 -419h-211l834 1400q-73 35 -114.5 102.5t-41.5 151.5q0 155 122.5 275t289.5 120q130 0 214.5 -79.5t84.5 -197.5q0 -116 -65.5 -213.5t-164.5 -146.5zM987 581l-92 732l-431 -732h523zM1156 1748q0 72 -47.5 121.5t-125.5 49.5
q-97 0 -170 -72.5t-74 -170.5q0 -74 47.5 -124.5t124.5 -50.5q97 0 171 75t74 172z" />
    <glyph glyph-name="AE" unicode="&#xc6;" horiz-adv-x="2026" 
d="M1783 0h-945l129 559h-515l-351 -559h-216l957 1489h1284l-38 -169h-748l-98 -420h748l-38 -168h-748l-131 -563h748zM1003 718l142 613h-200l-395 -613h453z" />
    <glyph glyph-name="Ccedilla" unicode="&#xc7;" horiz-adv-x="1430" 
d="M738 -27q-283 0 -444 146.5t-161 415.5q0 206 62 384t178 312q115 132 283 208.5t375 76.5q129 0 244 -31.5t236 -99.5l-45 -224h-15q-33 33 -66.5 61.5t-100.5 62.5q-55 29 -131 48.5t-168 19.5q-140 0 -257 -58.5t-203 -163.5q-84 -102 -132 -248t-48 -311
q0 -206 107 -320.5t309 -114.5q95 0 180.5 21.5t155.5 54.5q65 31 117 65t89 63h14l-47 -230q-64 -30 -145.5 -62.5t-156.5 -49.5q-5 -195 -114.5 -308.5t-285.5 -113.5q-43 0 -98 8.5t-97 21.5l33 148h9q24 -10 65.5 -23t91.5 -13q130 0 186 70t56 187q-18 -1 -37.5 -2
t-38.5 -1z" />
    <glyph glyph-name="Egrave" unicode="&#xc8;" horiz-adv-x="1295" 
d="M1395 1489l-39 -169h-783l-96 -420h783l-39 -168h-783l-130 -563h783l-39 -169h-981l343 1489h981zM1060 1675h-145l-197 374h236z" />
    <glyph glyph-name="Eacute" unicode="&#xc9;" horiz-adv-x="1295" 
d="M1395 1489l-39 -169h-783l-96 -420h783l-39 -168h-783l-130 -563h783l-39 -169h-981l343 1489h981zM1261 2049l-355 -374h-156l254 374h257z" />
    <glyph glyph-name="Ecircumflex" unicode="&#xca;" horiz-adv-x="1295" 
d="M1395 1489l-39 -169h-783l-96 -420h783l-39 -168h-783l-130 -563h783l-39 -169h-981l343 1489h981zM1274 1670h-152l-130 260l-241 -260h-162l311 379h228z" />
    <glyph glyph-name="Edieresis" unicode="&#xcb;" horiz-adv-x="1295" 
d="M1395 1489l-39 -169h-783l-96 -420h783l-39 -168h-783l-130 -563h783l-39 -169h-981l343 1489h981zM1241 1677h-201l45 195h201zM826 1677h-201l45 195h201z" />
    <glyph glyph-name="Igrave" unicode="&#xcc;" horiz-adv-x="862" 
d="M597 0h-590l33 145h195l278 1199h-195l33 145h590l-33 -145h-195l-278 -1199h195zM874 1675h-145l-197 374h236z" />
    <glyph glyph-name="Iacute" unicode="&#xcd;" horiz-adv-x="862" 
d="M597 0h-590l33 145h195l278 1199h-195l33 145h590l-33 -145h-195l-278 -1199h195zM1026 2049l-355 -374h-156l254 374h257z" />
    <glyph glyph-name="Icircumflex" unicode="&#xce;" horiz-adv-x="862" 
d="M597 0h-590l33 145h195l278 1199h-195l33 145h590l-33 -145h-195l-278 -1199h195zM1014 1670h-152l-130 260l-241 -260h-162l311 379h228z" />
    <glyph glyph-name="Idieresis" unicode="&#xcf;" horiz-adv-x="862" 
d="M597 0h-590l33 145h195l278 1199h-195l33 145h590l-33 -145h-195l-278 -1199h195zM1001 1677h-201l45 195h201zM586 1677h-201l45 195h201z" />
    <glyph glyph-name="Eth" unicode="&#xd0;" horiz-adv-x="1568" 
d="M1519 918q0 -244 -124 -462t-339 -337q-132 -71 -270 -95t-313 -24h-402l172 744h-185l31 135h185l141 610h346q162 0 295.5 -22.5t244.5 -96.5q106 -71 162 -185.5t56 -266.5zM1310 901q0 114 -40.5 196.5t-122.5 137.5q-81 54 -173 72.5t-233 18.5h-165l-104 -447h361
l-31 -135h-361l-135 -581h207q143 0 255.5 23.5t212.5 80.5q161 92 245 265.5t84 368.5z" />
    <glyph glyph-name="Ntilde" unicode="&#xd1;" horiz-adv-x="1532" 
d="M1208 0h-236l-407 1332l-308 -1332h-187l344 1489h298l372 -1216l281 1216h187zM1454 1992q-39 -156 -110.5 -231t-177.5 -75q-55 0 -94 18t-73 58t-63.5 63t-65.5 23q-46 0 -76.5 -42t-49.5 -124h-125q35 152 113 228.5t174 76.5q50 0 91.5 -19.5t73.5 -55.5
q35 -40 65.5 -61t66.5 -21q45 0 78 43.5t50 118.5h123z" />
    <glyph glyph-name="Ograve" unicode="&#xd2;" horiz-adv-x="1612" 
d="M1563 962q0 -194 -58.5 -374t-169.5 -317q-114 -141 -274 -221.5t-361 -80.5q-266 0 -416 145.5t-150 413.5q0 204 60 381t173 316q110 134 272.5 214.5t356.5 80.5q265 0 416 -144.5t151 -413.5zM1184 370q84 114 127 254.5t43 309.5q0 204 -102.5 313.5t-286.5 109.5
q-143 0 -258 -65.5t-198 -177.5q-80 -110 -123 -255.5t-43 -299.5q0 -206 102.5 -316.5t287.5 -110.5q141 0 256.5 65t194.5 173zM1117 1675h-145l-197 374h236z" />
    <glyph glyph-name="Oacute" unicode="&#xd3;" horiz-adv-x="1612" 
d="M1563 962q0 -194 -58.5 -374t-169.5 -317q-114 -141 -274 -221.5t-361 -80.5q-266 0 -416 145.5t-150 413.5q0 204 60 381t173 316q110 134 272.5 214.5t356.5 80.5q265 0 416 -144.5t151 -413.5zM1184 370q84 114 127 254.5t43 309.5q0 204 -102.5 313.5t-286.5 109.5
q-143 0 -258 -65.5t-198 -177.5q-80 -110 -123 -255.5t-43 -299.5q0 -206 102.5 -316.5t287.5 -110.5q141 0 256.5 65t194.5 173zM1351 2049l-355 -374h-156l254 374h257z" />
    <glyph glyph-name="Ocircumflex" unicode="&#xd4;" horiz-adv-x="1612" 
d="M1563 962q0 -194 -58.5 -374t-169.5 -317q-114 -141 -274 -221.5t-361 -80.5q-266 0 -416 145.5t-150 413.5q0 204 60 381t173 316q110 134 272.5 214.5t356.5 80.5q265 0 416 -144.5t151 -413.5zM1184 370q84 114 127 254.5t43 309.5q0 204 -102.5 313.5t-286.5 109.5
q-143 0 -258 -65.5t-198 -177.5q-80 -110 -123 -255.5t-43 -299.5q0 -206 102.5 -316.5t287.5 -110.5q141 0 256.5 65t194.5 173zM1332 1670h-152l-130 260l-241 -260h-162l311 379h228z" />
    <glyph glyph-name="Otilde" unicode="&#xd5;" horiz-adv-x="1612" 
d="M1563 962q0 -194 -58.5 -374t-169.5 -317q-114 -141 -274 -221.5t-361 -80.5q-266 0 -416 145.5t-150 413.5q0 204 60 381t173 316q110 134 272.5 214.5t356.5 80.5q265 0 416 -144.5t151 -413.5zM1184 370q84 114 127 254.5t43 309.5q0 204 -102.5 313.5t-286.5 109.5
q-143 0 -258 -65.5t-198 -177.5q-80 -110 -123 -255.5t-43 -299.5q0 -206 102.5 -316.5t287.5 -110.5q141 0 256.5 65t194.5 173zM1425 1992q-39 -156 -110.5 -231t-177.5 -75q-55 0 -94 18t-73 58t-63.5 63t-65.5 23q-46 0 -76.5 -42t-49.5 -124h-125q35 152 113 228.5
t174 76.5q50 0 91.5 -19.5t73.5 -55.5q35 -40 65.5 -61t66.5 -21q45 0 78 43.5t50 118.5h123z" />
    <glyph glyph-name="Odieresis" unicode="&#xd6;" horiz-adv-x="1612" 
d="M1563 962q0 -194 -58.5 -374t-169.5 -317q-114 -141 -274 -221.5t-361 -80.5q-266 0 -416 145.5t-150 413.5q0 204 60 381t173 316q110 134 272.5 214.5t356.5 80.5q265 0 416 -144.5t151 -413.5zM1184 370q84 114 127 254.5t43 309.5q0 204 -102.5 313.5t-286.5 109.5
q-143 0 -258 -65.5t-198 -177.5q-80 -110 -123 -255.5t-43 -299.5q0 -206 102.5 -316.5t287.5 -110.5q141 0 256.5 65t194.5 173zM1298 1677h-201l45 195h201zM883 1677h-201l45 195h201z" />
    <glyph glyph-name="multiply" unicode="&#xd7;" horiz-adv-x="1676" 
d="M1428 216l-111 -111l-436 440l-436 -440l-111 111l440 436l-440 436l111 111l436 -440l436 440l111 -111l-440 -436z" />
    <glyph glyph-name="Oslash" unicode="&#xd8;" horiz-adv-x="1612" 
d="M1283 1221l-797 -1019q47 -35 108.5 -53.5t138.5 -18.5q134 0 252 62.5t201 176.5q84 114 127.5 255t43.5 310q0 88 -18.5 161t-55.5 126zM413 273l797 1015q-48 36 -111 53.5t-134 17.5q-143 0 -258.5 -65t-199.5 -179q-80 -110 -123.5 -254.5t-43.5 -301.5
q0 -86 19 -159.5t54 -126.5zM286 116q-73 72 -113 176t-40 236q0 198 60.5 378.5t173.5 318.5q109 134 272 214.5t357 80.5q98 0 181.5 -21t149.5 -62l137 174h132l-186 -236q76 -74 115 -175t39 -238q0 -194 -58.5 -374t-169.5 -317q-114 -141 -274 -221.5t-362 -80.5
q-96 0 -181 21.5t-151 61.5l-156 -198h-132z" />
    <glyph glyph-name="Ugrave" unicode="&#xd9;" horiz-adv-x="1499" 
d="M1330 598q-39 -167 -99 -284.5t-159 -198.5q-92 -74 -199.5 -110t-252.5 -36q-235 0 -350 106t-115 293q0 63 8.5 117t21.5 113l206 891h200l-208 -901q-12 -47 -19.5 -105.5t-7.5 -91.5q0 -126 75 -192.5t224 -66.5q107 0 188 33t141 99q54 62 86.5 137.5t56.5 181.5
l209 906h200zM1118 1675h-145l-197 374h236z" />
    <glyph glyph-name="Uacute" unicode="&#xda;" horiz-adv-x="1499" 
d="M1330 598q-39 -167 -99 -284.5t-159 -198.5q-92 -74 -199.5 -110t-252.5 -36q-235 0 -350 106t-115 293q0 63 8.5 117t21.5 113l206 891h200l-208 -901q-12 -47 -19.5 -105.5t-7.5 -91.5q0 -126 75 -192.5t224 -66.5q107 0 188 33t141 99q54 62 86.5 137.5t56.5 181.5
l209 906h200zM1317 2049l-355 -374h-156l254 374h257z" />
    <glyph glyph-name="Ucircumflex" unicode="&#xdb;" horiz-adv-x="1499" 
d="M1330 598q-39 -167 -99 -284.5t-159 -198.5q-92 -74 -199.5 -110t-252.5 -36q-235 0 -350 106t-115 293q0 63 8.5 117t21.5 113l206 891h200l-208 -901q-12 -47 -19.5 -105.5t-7.5 -91.5q0 -126 75 -192.5t224 -66.5q107 0 188 33t141 99q54 62 86.5 137.5t56.5 181.5
l209 906h200zM1318 1670h-152l-130 260l-241 -260h-162l311 379h228z" />
    <glyph glyph-name="Udieresis" unicode="&#xdc;" horiz-adv-x="1499" 
d="M1330 598q-39 -167 -99 -284.5t-159 -198.5q-92 -74 -199.5 -110t-252.5 -36q-235 0 -350 106t-115 293q0 63 8.5 117t21.5 113l206 891h200l-208 -901q-12 -47 -19.5 -105.5t-7.5 -91.5q0 -126 75 -192.5t224 -66.5q107 0 188 33t141 99q54 62 86.5 137.5t56.5 181.5
l209 906h200zM1282 1677h-201l45 195h201zM867 1677h-201l45 195h201z" />
    <glyph glyph-name="Yacute" unicode="&#xdd;" horiz-adv-x="1260" 
d="M1463 1489l-713 -836l-151 -653h-200l146 632l-332 857h212l258 -669l563 669h217zM1197 2049l-355 -374h-156l254 374h257z" />
    <glyph glyph-name="Thorn" unicode="&#xde;" horiz-adv-x="1240" 
d="M743 1219q135 0 221.5 -21.5t149.5 -67.5q59 -43 90 -105t31 -149q0 -113 -51.5 -221.5t-145.5 -183.5q-92 -73 -205.5 -111t-273.5 -38h-214l-75 -322h-200l344 1489h200l-62 -270h191zM1023 844q0 50 -16.5 89.5t-53.5 66.5q-42 32 -104.5 44t-149.5 12h-185l-132 -571
h176q119 0 198 20t137 66q68 54 99 121.5t31 151.5z" />
    <glyph glyph-name="germandbls" unicode="&#xdf;" horiz-adv-x="1270" 
d="M991 162q-82 -86 -187.5 -136t-237.5 -50q-44 0 -100 7.5t-90 20.5l36 158h10q40 -26 88 -34t101 -8q86 0 154 42.5t111 107.5q42 63 65.5 143t23.5 158q0 126 -91 191.5t-261 65.5l35 142q174 0 271.5 79.5t97.5 209.5q0 76 -52.5 121t-146.5 45q-126 0 -206.5 -87
t-117.5 -251l-248 -1087h-190l247 1080q31 133 82.5 221.5t125.5 150.5q69 57 160.5 85.5t185.5 28.5q161 0 259 -71.5t98 -201.5q0 -133 -95 -236t-232 -139v-8q132 -31 203.5 -117t71.5 -214q0 -114 -45.5 -224.5t-125.5 -192.5z" />
    <glyph glyph-name="agrave" unicode="&#xe0;" horiz-adv-x="1230" 
d="M874 589q-154 -6 -273.5 -23.5t-197.5 -50.5q-81 -33 -123 -89.5t-42 -140.5q0 -72 49 -110t152 -38q91 0 185.5 40.5t176.5 97.5zM765 119q-27 -16 -73.5 -45.5t-94.5 -50.5q-51 -23 -114 -38.5t-145 -15.5q-133 0 -216 77.5t-83 202.5q0 133 58.5 224.5t173.5 149.5
q113 57 272.5 82.5t363.5 31.5q6 28 10 48.5t4 42.5q0 48 -19 78t-54 48t-81.5 24.5t-102.5 6.5q-85 0 -194 -27.5t-177 -54.5h-10l37 188q57 15 167 34t211 19q208 0 312 -65t104 -206q0 -27 -4.5 -57.5t-10.5 -57.5l-175 -758h-187zM885 1302h-145l-197 374h236z" />
    <glyph glyph-name="aacute" unicode="&#xe1;" horiz-adv-x="1230" 
d="M874 589q-154 -6 -273.5 -23.5t-197.5 -50.5q-81 -33 -123 -89.5t-42 -140.5q0 -72 49 -110t152 -38q91 0 185.5 40.5t176.5 97.5zM765 119q-27 -16 -73.5 -45.5t-94.5 -50.5q-51 -23 -114 -38.5t-145 -15.5q-133 0 -216 77.5t-83 202.5q0 133 58.5 224.5t173.5 149.5
q113 57 272.5 82.5t363.5 31.5q6 28 10 48.5t4 42.5q0 48 -19 78t-54 48t-81.5 24.5t-102.5 6.5q-85 0 -194 -27.5t-177 -54.5h-10l37 188q57 15 167 34t211 19q208 0 312 -65t104 -206q0 -27 -4.5 -57.5t-10.5 -57.5l-175 -758h-187zM1125 1676l-355 -374h-156l254 374h257
z" />
    <glyph glyph-name="acircumflex" unicode="&#xe2;" horiz-adv-x="1230" 
d="M874 589q-154 -6 -273.5 -23.5t-197.5 -50.5q-81 -33 -123 -89.5t-42 -140.5q0 -72 49 -110t152 -38q91 0 185.5 40.5t176.5 97.5zM765 119q-27 -16 -73.5 -45.5t-94.5 -50.5q-51 -23 -114 -38.5t-145 -15.5q-133 0 -216 77.5t-83 202.5q0 133 58.5 224.5t173.5 149.5
q113 57 272.5 82.5t363.5 31.5q6 28 10 48.5t4 42.5q0 48 -19 78t-54 48t-81.5 24.5t-102.5 6.5q-85 0 -194 -27.5t-177 -54.5h-10l37 188q57 15 167 34t211 19q208 0 312 -65t104 -206q0 -27 -4.5 -57.5t-10.5 -57.5l-175 -758h-187zM1088 1297h-152l-130 260l-241 -260
h-162l311 379h228z" />
    <glyph glyph-name="atilde" unicode="&#xe3;" horiz-adv-x="1230" 
d="M874 589q-154 -6 -273.5 -23.5t-197.5 -50.5q-81 -33 -123 -89.5t-42 -140.5q0 -72 49 -110t152 -38q91 0 185.5 40.5t176.5 97.5zM765 119q-27 -16 -73.5 -45.5t-94.5 -50.5q-51 -23 -114 -38.5t-145 -15.5q-133 0 -216 77.5t-83 202.5q0 133 58.5 224.5t173.5 149.5
q113 57 272.5 82.5t363.5 31.5q6 28 10 48.5t4 42.5q0 48 -19 78t-54 48t-81.5 24.5t-102.5 6.5q-85 0 -194 -27.5t-177 -54.5h-10l37 188q57 15 167 34t211 19q208 0 312 -65t104 -206q0 -27 -4.5 -57.5t-10.5 -57.5l-175 -758h-187zM1174 1619q-39 -156 -110.5 -231
t-177.5 -75q-55 0 -94 18t-73 58t-63.5 63t-65.5 23q-46 0 -76.5 -42t-49.5 -124h-125q35 152 113 228.5t174 76.5q50 0 91.5 -19.5t73.5 -55.5q35 -40 65.5 -61t66.5 -21q45 0 78 43.5t50 118.5h123z" />
    <glyph glyph-name="adieresis" unicode="&#xe4;" horiz-adv-x="1230" 
d="M874 589q-154 -6 -273.5 -23.5t-197.5 -50.5q-81 -33 -123 -89.5t-42 -140.5q0 -72 49 -110t152 -38q91 0 185.5 40.5t176.5 97.5zM765 119q-27 -16 -73.5 -45.5t-94.5 -50.5q-51 -23 -114 -38.5t-145 -15.5q-133 0 -216 77.5t-83 202.5q0 133 58.5 224.5t173.5 149.5
q113 57 272.5 82.5t363.5 31.5q6 28 10 48.5t4 42.5q0 48 -19 78t-54 48t-81.5 24.5t-102.5 6.5q-85 0 -194 -27.5t-177 -54.5h-10l37 188q57 15 167 34t211 19q208 0 312 -65t104 -206q0 -27 -4.5 -57.5t-10.5 -57.5l-175 -758h-187zM1049 1304h-201l45 195h201zM634 1304
h-201l45 195h201z" />
    <glyph glyph-name="aring" unicode="&#xe5;" horiz-adv-x="1230" 
d="M874 589q-154 -6 -273.5 -23.5t-197.5 -50.5q-81 -33 -123 -89.5t-42 -140.5q0 -72 49 -110t152 -38q91 0 185.5 40.5t176.5 97.5zM765 119q-27 -16 -73.5 -45.5t-94.5 -50.5q-51 -23 -114 -38.5t-145 -15.5q-133 0 -216 77.5t-83 202.5q0 133 58.5 224.5t173.5 149.5
q113 57 272.5 82.5t363.5 31.5q6 28 10 48.5t4 42.5q0 48 -19 78t-54 48t-81.5 24.5t-102.5 6.5q-85 0 -194 -27.5t-177 -54.5h-10l37 188q39 10 107 23.5t141 20.5q-83 33 -131.5 102t-48.5 161q0 159 125.5 277t286.5 118q130 0 214.5 -79.5t84.5 -197.5
q0 -130 -80 -234.5t-199 -144.5q147 -17 220.5 -81.5t73.5 -182.5q0 -27 -4.5 -57.5t-10.5 -57.5l-175 -758h-187zM952 1492q0 72 -47.5 121.5t-125.5 49.5q-97 0 -170 -72.5t-74 -170.5q0 -74 47.5 -124.5t124.5 -50.5q97 0 171 75t74 172z" />
    <glyph glyph-name="ae" unicode="&#xe6;" horiz-adv-x="1955" 
d="M1889 789q0 -31 -7 -92t-25 -135h-821q-6 -30 -10 -67t-4 -62q0 -151 87.5 -226.5t240.5 -75.5q110 0 223 43.5t194 98.5h12l-40 -205q-91 -35 -197 -64.5t-222 -29.5q-168 0 -275.5 53t-163.5 154q-24 -18 -78.5 -59t-108.5 -68q-72 -37 -156 -60t-186 -23
q-132 0 -216.5 75t-84.5 198q0 145 62 233.5t176 138.5q106 47 266.5 65.5t336.5 21.5q8 43 13 68t5 54q0 79 -61 120.5t-201 41.5q-83 0 -186 -27t-178 -57h-13l38 190q57 15 164 34t208 19q165 0 258 -46.5t132 -137.5q85 82 196.5 134t236.5 52q189 0 287 -94t98 -265z
M1706 765q0 121 -61 178t-181 57q-137 0 -241.5 -81t-154.5 -219h634q2 15 3 31t1 34zM854 561q-99 -3 -215 -11t-195 -32q-86 -25 -139.5 -80t-53.5 -151q0 -74 49.5 -112t153.5 -38q98 0 202.5 46.5t187.5 114.5q-4 24 -5.5 50t-1.5 50q0 39 4 77t13 86z" />
    <glyph glyph-name="ccedilla" unicode="&#xe7;" horiz-adv-x="1067" 
d="M540 -25q-106 0 -187.5 25t-142.5 79q-59 52 -91 131t-32 184q0 157 49 293t139 239q87 100 215 158.5t276 58.5q98 0 184.5 -27t152.5 -64l-41 -203h-11q-20 18 -50 42t-71 45q-41 22 -91 36.5t-114 14.5q-194 0 -316.5 -164t-122.5 -399q0 -141 72.5 -217t206.5 -76
q63 0 126 18t107 39q49 23 91 49t61 39h11l-40 -205q-37 -16 -77 -32t-81 -28q-1 -199 -111 -316.5t-289 -117.5q-43 0 -98 8.5t-97 21.5l33 148h9q24 -10 65.5 -23t91.5 -13q133 0 187.5 72t54.5 188q-17 -2 -34.5 -3t-34.5 -1z" />
    <glyph glyph-name="egrave" unicode="&#xe8;" horiz-adv-x="1220" 
d="M960 680q5 29 7 49t2 44q0 107 -58.5 167t-187.5 60q-142 0 -252 -88t-149 -232h638zM584 -26q-232 0 -364 109t-132 319q0 307 194 526.5t480 219.5q190 0 291 -94.5t101 -265.5q0 -30 -8.5 -95t-27.5 -151h-823q-6 -29 -8.5 -57t-2.5 -52q0 -141 86 -221.5t244 -80.5
q110 0 226.5 43t195.5 97h11l-41 -203q-50 -18 -90 -33t-102 -30t-110 -23t-120 -8zM896 1302h-145l-197 374h236z" />
    <glyph glyph-name="eacute" unicode="&#xe9;" horiz-adv-x="1220" 
d="M960 680q5 29 7 49t2 44q0 107 -58.5 167t-187.5 60q-142 0 -252 -88t-149 -232h638zM584 -26q-232 0 -364 109t-132 319q0 307 194 526.5t480 219.5q190 0 291 -94.5t101 -265.5q0 -30 -8.5 -95t-27.5 -151h-823q-6 -29 -8.5 -57t-2.5 -52q0 -141 86 -221.5t244 -80.5
q110 0 226.5 43t195.5 97h11l-41 -203q-50 -18 -90 -33t-102 -30t-110 -23t-120 -8zM1136 1676l-355 -374h-156l254 374h257z" />
    <glyph glyph-name="ecircumflex" unicode="&#xea;" horiz-adv-x="1220" 
d="M960 680q5 29 7 49t2 44q0 107 -58.5 167t-187.5 60q-142 0 -252 -88t-149 -232h638zM584 -26q-232 0 -364 109t-132 319q0 307 194 526.5t480 219.5q190 0 291 -94.5t101 -265.5q0 -30 -8.5 -95t-27.5 -151h-823q-6 -29 -8.5 -57t-2.5 -52q0 -141 86 -221.5t244 -80.5
q110 0 226.5 43t195.5 97h11l-41 -203q-50 -18 -90 -33t-102 -30t-110 -23t-120 -8zM1103 1297h-152l-130 260l-241 -260h-162l311 379h228z" />
    <glyph glyph-name="edieresis" unicode="&#xeb;" horiz-adv-x="1220" 
d="M960 680q5 29 7 49t2 44q0 107 -58.5 167t-187.5 60q-142 0 -252 -88t-149 -232h638zM584 -26q-232 0 -364 109t-132 319q0 307 194 526.5t480 219.5q190 0 291 -94.5t101 -265.5q0 -30 -8.5 -95t-27.5 -151h-823q-6 -29 -8.5 -57t-2.5 -52q0 -141 86 -221.5t244 -80.5
q110 0 226.5 43t195.5 97h11l-41 -203q-50 -18 -90 -33t-102 -30t-110 -23t-120 -8zM1061 1304h-201l45 195h201zM646 1304h-201l45 195h201z" />
    <glyph glyph-name="igrave" unicode="&#xec;" horiz-adv-x="562" 
d="M505 1117l-258 -1117h-190l258 1117h190zM571 1302h-145l-197 374h236z" />
    <glyph glyph-name="iacute" unicode="&#xed;" horiz-adv-x="562" 
d="M505 1117l-258 -1117h-190l258 1117h190zM806 1676l-355 -374h-156l254 374h257z" />
    <glyph glyph-name="icircumflex" unicode="&#xee;" horiz-adv-x="562" 
d="M505 1117l-258 -1117h-190l258 1117h190zM716 1297h-143l-83 267l-203 -267h-151l265 379h222z" />
    <glyph glyph-name="idieresis" unicode="&#xef;" horiz-adv-x="562" 
d="M505 1117l-258 -1117h-190l258 1117h190zM744 1499l-45 -195h-189l45 195h189zM381 1499l-45 -195h-189l45 195h189z" />
    <glyph glyph-name="eth" unicode="&#xf0;" horiz-adv-x="1253" 
d="M1001 215q-85 -114 -204.5 -180t-271.5 -66q-202 0 -319.5 109t-117.5 294q0 262 165 432t402 170q103 0 183.5 -29.5t154.5 -83.5q-6 122 -56.5 229t-124.5 181l-293 -164l-50 96l263 145q-73 67 -135 105t-144 87v16h281q33 -25 66.5 -53t79.5 -66l235 132l50 -97
l-209 -113q130 -151 174 -283.5t44 -275.5q0 -169 -44.5 -320.5t-128.5 -264.5zM867 311q52 88 79.5 191t35.5 216q-64 48 -150.5 72t-170.5 24q-177 0 -276.5 -119t-99.5 -306q0 -128 74.5 -196.5t194.5 -68.5q107 0 185.5 52.5t127.5 134.5z" />
    <glyph glyph-name="ntilde" unicode="&#xf1;" horiz-adv-x="1296" 
d="M1175 862q0 -24 -4.5 -65t-12.5 -72l-168 -725h-188l147 636q12 53 18.5 92.5t6.5 78.5q0 84 -41.5 126.5t-149.5 42.5q-76 0 -167.5 -42t-178.5 -100l-193 -834h-188l258 1117h188l-29 -124q107 75 200.5 115t192.5 40q146 0 227.5 -73.5t81.5 -212.5zM1223 1619
q-39 -156 -110.5 -231t-177.5 -75q-55 0 -94 18t-73 58t-63.5 63t-65.5 23q-46 0 -76.5 -42t-49.5 -124h-125q35 152 113 228.5t174 76.5q50 0 91.5 -19.5t73.5 -55.5q35 -40 65.5 -61t66.5 -21q45 0 78 43.5t50 118.5h123z" />
    <glyph glyph-name="ograve" unicode="&#xf2;" horiz-adv-x="1243" 
d="M1154 722q0 -150 -46 -288t-130 -240q-87 -106 -201 -165.5t-266 -59.5q-199 0 -310.5 113.5t-111.5 313.5q0 150 45.5 286t131.5 242q83 102 203.5 163t263.5 61q193 0 307 -110t114 -316zM848 300q54 80 82.5 185t28.5 222q0 140 -67 212t-189 72q-97 0 -174 -46.5
t-133 -127.5q-54 -79 -83 -185t-29 -220q0 -138 67 -212t190 -74q96 0 174 46t133 128zM907 1302h-145l-197 374h236z" />
    <glyph glyph-name="oacute" unicode="&#xf3;" horiz-adv-x="1243" 
d="M1154 722q0 -150 -46 -288t-130 -240q-87 -106 -201 -165.5t-266 -59.5q-199 0 -310.5 113.5t-111.5 313.5q0 150 45.5 286t131.5 242q83 102 203.5 163t263.5 61q193 0 307 -110t114 -316zM848 300q54 80 82.5 185t28.5 222q0 140 -67 212t-189 72q-97 0 -174 -46.5
t-133 -127.5q-54 -79 -83 -185t-29 -220q0 -138 67 -212t190 -74q96 0 174 46t133 128zM1147 1676l-355 -374h-156l254 374h257z" />
    <glyph glyph-name="ocircumflex" unicode="&#xf4;" horiz-adv-x="1243" 
d="M1154 722q0 -150 -46 -288t-130 -240q-87 -106 -201 -165.5t-266 -59.5q-199 0 -310.5 113.5t-111.5 313.5q0 150 45.5 286t131.5 242q83 102 203.5 163t263.5 61q193 0 307 -110t114 -316zM848 300q54 80 82.5 185t28.5 222q0 140 -67 212t-189 72q-97 0 -174 -46.5
t-133 -127.5q-54 -79 -83 -185t-29 -220q0 -138 67 -212t190 -74q96 0 174 46t133 128zM1114 1297h-152l-130 260l-241 -260h-162l311 379h228z" />
    <glyph glyph-name="otilde" unicode="&#xf5;" horiz-adv-x="1243" 
d="M1154 722q0 -150 -46 -288t-130 -240q-87 -106 -201 -165.5t-266 -59.5q-199 0 -310.5 113.5t-111.5 313.5q0 150 45.5 286t131.5 242q83 102 203.5 163t263.5 61q193 0 307 -110t114 -316zM848 300q54 80 82.5 185t28.5 222q0 140 -67 212t-189 72q-97 0 -174 -46.5
t-133 -127.5q-54 -79 -83 -185t-29 -220q0 -138 67 -212t190 -74q96 0 174 46t133 128zM1196 1619q-39 -156 -110.5 -231t-177.5 -75q-55 0 -94 18t-73 58t-63.5 63t-65.5 23q-46 0 -76.5 -42t-49.5 -124h-125q35 152 113 228.5t174 76.5q50 0 91.5 -19.5t73.5 -55.5
q35 -40 65.5 -61t66.5 -21q45 0 78 43.5t50 118.5h123z" />
    <glyph glyph-name="odieresis" unicode="&#xf6;" horiz-adv-x="1243" 
d="M1154 722q0 -150 -46 -288t-130 -240q-87 -106 -201 -165.5t-266 -59.5q-199 0 -310.5 113.5t-111.5 313.5q0 150 45.5 286t131.5 242q83 102 203.5 163t263.5 61q193 0 307 -110t114 -316zM848 300q54 80 82.5 185t28.5 222q0 140 -67 212t-189 72q-97 0 -174 -46.5
t-133 -127.5q-54 -79 -83 -185t-29 -220q0 -138 67 -212t190 -74q96 0 174 46t133 128zM1072 1304h-201l45 195h201zM657 1304h-201l45 195h201z" />
    <glyph glyph-name="divide" unicode="&#xf7;" horiz-adv-x="1676" 
d="M1000 1022h-238v275h238v-275zM1509 572h-1256v160h1256v-160zM1000 7h-238v275h238v-275z" />
    <glyph glyph-name="oslash" unicode="&#xf8;" horiz-adv-x="1243" 
d="M925 880l-550 -705q30 -24 72 -38t94 -14q96 0 174.5 46.5t133.5 128.5q56 83 84.5 185.5t28.5 223.5q0 51 -9.5 95.5t-27.5 77.5zM318 239l550 705q-32 25 -74 37.5t-91 12.5q-101 0 -176 -47t-132 -129q-53 -76 -83.5 -185.5t-30.5 -220.5q0 -54 9 -95.5t28 -77.5z
M197 89q-52 55 -80.5 133.5t-28.5 173.5q0 149 45.5 285.5t131.5 242.5q83 102 204 163t264 61q71 0 133 -17t111 -48l124 158h111l-167 -213q53 -55 81.5 -130t28.5 -176q0 -148 -45.5 -286t-130.5 -242q-87 -106 -201.5 -165.5t-266.5 -59.5q-72 0 -134.5 17t-112.5 48
l-143 -182h-110z" />
    <glyph glyph-name="ugrave" unicode="&#xf9;" horiz-adv-x="1296" 
d="M1240 1117l-258 -1117h-188l29 124q-107 -73 -199.5 -114t-195.5 -41q-144 0 -225 72.5t-81 211.5q0 34 4.5 66t12.5 73l167 725h188l-147 -636q-9 -39 -17 -89t-8 -79q0 -86 43.5 -129t148.5 -43q74 0 169.5 43t176.5 99l192 834h188zM930 1302h-145l-197 374h236z" />
    <glyph glyph-name="uacute" unicode="&#xfa;" horiz-adv-x="1296" 
d="M1240 1117l-258 -1117h-188l29 124q-107 -73 -199.5 -114t-195.5 -41q-144 0 -225 72.5t-81 211.5q0 34 4.5 66t12.5 73l167 725h188l-147 -636q-9 -39 -17 -89t-8 -79q0 -86 43.5 -129t148.5 -43q74 0 169.5 43t176.5 99l192 834h188zM1170 1676l-355 -374h-156l254 374
h257z" />
    <glyph glyph-name="ucircumflex" unicode="&#xfb;" horiz-adv-x="1296" 
d="M1240 1117l-258 -1117h-188l29 124q-107 -73 -199.5 -114t-195.5 -41q-144 0 -225 72.5t-81 211.5q0 34 4.5 66t12.5 73l167 725h188l-147 -636q-9 -39 -17 -89t-8 -79q0 -86 43.5 -129t148.5 -43q74 0 169.5 43t176.5 99l192 834h188zM1137 1297h-152l-130 260
l-241 -260h-162l311 379h228z" />
    <glyph glyph-name="udieresis" unicode="&#xfc;" horiz-adv-x="1296" 
d="M1240 1117l-258 -1117h-188l29 124q-107 -73 -199.5 -114t-195.5 -41q-144 0 -225 72.5t-81 211.5q0 34 4.5 66t12.5 73l167 725h188l-147 -636q-9 -39 -17 -89t-8 -79q0 -86 43.5 -129t148.5 -43q74 0 169.5 43t176.5 99l192 834h188zM1096 1304h-201l45 195h201z
M681 1304h-201l45 195h201z" />
    <glyph glyph-name="yacute" unicode="&#xfd;" horiz-adv-x="1210" 
d="M258 -412h-207l325 477l-202 1052h193l158 -831l534 831h205zM1123 1676l-355 -374h-156l254 374h257z" />
    <glyph glyph-name="thorn" unicode="&#xfe;" horiz-adv-x="1276" 
d="M1191 764q0 -166 -51.5 -312t-136.5 -248q-86 -105 -200 -165.5t-243 -60.5q-90 0 -165.5 20.5t-137.5 59.5l-108 -470h-188l454 1968h188l-128 -556q93 65 183 106.5t199 41.5q163 0 248.5 -101t85.5 -283zM994 728q0 119 -52 183.5t-166 64.5q-83 0 -172 -41t-166 -93
l-146 -633q65 -35 124 -52t143 -17q103 0 185.5 50t136.5 130q57 84 85 187t28 221z" />
    <glyph glyph-name="ydieresis" unicode="&#xff;" horiz-adv-x="1210" 
d="M258 -412h-207l325 477l-202 1052h193l158 -831l534 831h205zM1050 1304h-201l45 195h201zM635 1304h-201l45 195h201z" />
    <glyph glyph-name="Amacron" unicode="&#x100;" horiz-adv-x="1398" 
d="M1261 0h-201l-50 419h-642l-244 -419h-209l886 1489h262zM988 581l-93 735l-432 -735h525zM1349 1711h-850l35 151h850z" />
    <glyph glyph-name="amacron" unicode="&#x101;" horiz-adv-x="1230" 
d="M874 589q-154 -6 -273.5 -23.5t-197.5 -50.5q-81 -33 -123 -89.5t-42 -140.5q0 -72 49 -110t152 -38q91 0 185.5 40.5t176.5 97.5zM765 119q-27 -16 -73.5 -45.5t-94.5 -50.5q-51 -23 -114 -38.5t-145 -15.5q-133 0 -216 77.5t-83 202.5q0 133 58.5 224.5t173.5 149.5
q113 57 272.5 82.5t363.5 31.5q6 28 10 48.5t4 42.5q0 48 -19 78t-54 48t-81.5 24.5t-102.5 6.5q-85 0 -194 -27.5t-177 -54.5h-10l37 188q57 15 167 34t211 19q208 0 312 -65t104 -206q0 -27 -4.5 -57.5t-10.5 -57.5l-175 -758h-187zM1152 1338h-850l35 151h850z" />
    <glyph glyph-name="Abreve" unicode="&#x102;" horiz-adv-x="1398" 
d="M1261 0h-201l-50 419h-642l-244 -419h-209l886 1489h262zM988 581l-93 735l-432 -735h525zM1388 2049q-47 -179 -167 -280.5t-281 -101.5q-146 0 -227 80.5t-81 230.5q0 19 1.5 34.5t3.5 36.5h166q-2 -18 -2.5 -33.5t-0.5 -26.5q0 -100 42 -146t122 -46q85 0 153 56.5
t106 195.5h165z" />
    <glyph glyph-name="abreve" unicode="&#x103;" horiz-adv-x="1230" 
d="M874 589q-154 -6 -273.5 -23.5t-197.5 -50.5q-81 -33 -123 -89.5t-42 -140.5q0 -72 49 -110t152 -38q91 0 185.5 40.5t176.5 97.5zM765 119q-27 -16 -73.5 -45.5t-94.5 -50.5q-51 -23 -114 -38.5t-145 -15.5q-133 0 -216 77.5t-83 202.5q0 133 58.5 224.5t173.5 149.5
q113 57 272.5 82.5t363.5 31.5q6 28 10 48.5t4 42.5q0 48 -19 78t-54 48t-81.5 24.5t-102.5 6.5q-85 0 -194 -27.5t-177 -54.5h-10l37 188q57 15 167 34t211 19q208 0 312 -65t104 -206q0 -27 -4.5 -57.5t-10.5 -57.5l-175 -758h-187zM1158 1676q-47 -179 -167 -280.5
t-281 -101.5q-146 0 -227 80.5t-81 230.5q0 19 1.5 34.5t3.5 36.5h166q-2 -18 -2.5 -33.5t-0.5 -26.5q0 -100 42 -146t122 -46q85 0 153 56.5t106 195.5h165z" />
    <glyph glyph-name="Aogonek" unicode="&#x104;" horiz-adv-x="1398" 
d="M1049 85l-40 334h-640l-244 -419h-211l886 1489h264l198 -1489h-98q-15 -30 -29.5 -73.5t-14.5 -82.5q0 -59 38.5 -89t112.5 -30q34 0 77.5 12t68.5 23h8l-35 -151q-56 -14 -94.5 -20t-80.5 -6q-123 0 -190 60.5t-67 166.5q0 76 28.5 143t62.5 132zM987 581l-93 732
l-430 -732h523z" />
    <glyph glyph-name="aogonek" unicode="&#x105;" horiz-adv-x="1230" 
d="M874 589q-154 -6 -273.5 -23.5t-197.5 -50.5q-81 -33 -123 -89.5t-42 -140.5q0 -72 49 -110t152 -38q91 0 185.5 40.5t176.5 97.5zM765 119q-27 -16 -73.5 -45.5t-94.5 -50.5q-51 -23 -114 -38.5t-145 -15.5q-133 0 -216 77.5t-83 202.5q0 133 58.5 224.5t173.5 149.5
q113 57 272.5 82.5t363.5 31.5q6 28 10 48.5t4 42.5q0 48 -19 78t-54 48t-81.5 24.5t-102.5 6.5q-85 0 -194 -27.5t-177 -54.5h-10l37 188q57 15 167 34t211 19q208 0 312 -65t104 -206q0 -27 -4.5 -57.5t-10.5 -57.5l-175 -758h-27q-14 -25 -33 -71t-19 -85q0 -59 38.5 -89
t112.5 -30q34 0 77.5 12t68.5 23h8l-35 -151q-56 -14 -94.5 -20t-80.5 -6q-123 0 -190 60t-67 167q0 50 15.5 96t38.5 94z" />
    <glyph glyph-name="Cacute" unicode="&#x106;" horiz-adv-x="1430" 
d="M738 -27q-283 0 -444 146.5t-161 415.5q0 206 62 384t178 312q115 132 283 208.5t375 76.5q129 0 244 -31.5t236 -99.5l-45 -224h-15q-33 33 -66.5 61.5t-100.5 62.5q-55 29 -131 48.5t-168 19.5q-140 0 -257 -58.5t-203 -163.5q-84 -102 -132 -248t-48 -311
q0 -206 107 -320.5t309 -114.5q95 0 180.5 21.5t155.5 54.5q65 31 117 65t89 63h14l-47 -230q-105 -53 -241.5 -95.5t-290.5 -42.5zM1380 2049l-355 -374h-156l254 374h257z" />
    <glyph glyph-name="cacute" unicode="&#x107;" horiz-adv-x="1067" 
d="M540 -25q-106 0 -187.5 25t-142.5 79q-59 52 -91 131t-32 184q0 157 49 293t139 239q87 100 215 158.5t276 58.5q98 0 184.5 -27t152.5 -64l-41 -203h-11q-20 18 -50 42t-71 45q-41 22 -91 36.5t-114 14.5q-194 0 -316.5 -164t-122.5 -399q0 -141 72.5 -217t206.5 -76
q63 0 126 18t107 39q49 23 91 49t61 39h11l-40 -205q-87 -39 -184 -67.5t-197 -28.5zM1103 1676l-355 -374h-156l254 374h257z" />
    <glyph glyph-name="Ccircumflex" unicode="&#x108;" horiz-adv-x="1430" 
d="M738 -27q-283 0 -444 146.5t-161 415.5q0 206 62 384t178 312q115 132 283 208.5t375 76.5q129 0 244 -31.5t236 -99.5l-45 -224h-15q-33 33 -66.5 61.5t-100.5 62.5q-55 29 -131 48.5t-168 19.5q-140 0 -257 -58.5t-203 -163.5q-84 -102 -132 -248t-48 -311
q0 -206 107 -320.5t309 -114.5q95 0 180.5 21.5t155.5 54.5q65 31 117 65t89 63h14l-47 -230q-105 -53 -241.5 -95.5t-290.5 -42.5zM1345 1670h-152l-130 260l-241 -260h-162l311 379h228z" />
    <glyph glyph-name="ccircumflex" unicode="&#x109;" horiz-adv-x="1067" 
d="M540 -25q-106 0 -187.5 25t-142.5 79q-59 52 -91 131t-32 184q0 157 49 293t139 239q87 100 215 158.5t276 58.5q98 0 184.5 -27t152.5 -64l-41 -203h-11q-20 18 -50 42t-71 45q-41 22 -91 36.5t-114 14.5q-194 0 -316.5 -164t-122.5 -399q0 -141 72.5 -217t206.5 -76
q63 0 126 18t107 39q49 23 91 49t61 39h11l-40 -205q-87 -39 -184 -67.5t-197 -28.5zM1082 1297h-152l-130 260l-241 -260h-162l311 379h228z" />
    <glyph glyph-name="Cdot" unicode="&#x10a;" horiz-adv-x="1430" 
d="M738 -27q-283 0 -444 146.5t-161 415.5q0 206 62 384t178 312q115 132 283 208.5t375 76.5q129 0 244 -31.5t236 -99.5l-45 -224h-15q-33 33 -66.5 61.5t-100.5 62.5q-55 29 -131 48.5t-168 19.5q-140 0 -257 -58.5t-203 -163.5q-84 -102 -132 -248t-48 -311
q0 -206 107 -320.5t309 -114.5q95 0 180.5 21.5t155.5 54.5q65 31 117 65t89 63h14l-47 -230q-105 -53 -241.5 -95.5t-290.5 -42.5zM1135 1677h-214l45 195h214z" />
    <glyph glyph-name="cdot" unicode="&#x10b;" horiz-adv-x="1067" 
d="M540 -25q-106 0 -187.5 25t-142.5 79q-59 52 -91 131t-32 184q0 157 49 293t139 239q87 100 215 158.5t276 58.5q98 0 184.5 -27t152.5 -64l-41 -203h-11q-20 18 -50 42t-71 45q-41 22 -91 36.5t-114 14.5q-194 0 -316.5 -164t-122.5 -399q0 -141 72.5 -217t206.5 -76
q63 0 126 18t107 39q49 23 91 49t61 39h11l-40 -205q-87 -39 -184 -67.5t-197 -28.5zM841 1304h-214l45 195h214z" />
    <glyph glyph-name="Ccaron" unicode="&#x10c;" horiz-adv-x="1430" 
d="M738 -27q-283 0 -444 146.5t-161 415.5q0 206 62 384t178 312q115 132 283 208.5t375 76.5q129 0 244 -31.5t236 -99.5l-45 -224h-15q-33 33 -66.5 61.5t-100.5 62.5q-55 29 -131 48.5t-168 19.5q-140 0 -257 -58.5t-203 -163.5q-84 -102 -132 -248t-48 -311
q0 -206 107 -320.5t309 -114.5q95 0 180.5 21.5t155.5 54.5q65 31 117 65t89 63h14l-47 -230q-105 -53 -241.5 -95.5t-290.5 -42.5zM1447 2049l-315 -379h-229l-141 379h161l125 -256l242 256h157z" />
    <glyph glyph-name="ccaron" unicode="&#x10d;" horiz-adv-x="1067" 
d="M540 -25q-106 0 -187.5 25t-142.5 79q-59 52 -91 131t-32 184q0 157 49 293t139 239q87 100 215 158.5t276 58.5q98 0 184.5 -27t152.5 -64l-41 -203h-11q-20 18 -50 42t-71 45q-41 22 -91 36.5t-114 14.5q-194 0 -316.5 -164t-122.5 -399q0 -141 72.5 -217t206.5 -76
q63 0 126 18t107 39q49 23 91 49t61 39h11l-40 -205q-87 -39 -184 -67.5t-197 -28.5zM1156 1676l-315 -379h-229l-141 379h161l125 -256l242 256h157z" />
    <glyph glyph-name="Dcaron" unicode="&#x10e;" horiz-adv-x="1568" 
d="M1519 918q0 -244 -124 -462t-339 -337q-132 -71 -270 -95t-313 -24h-402l344 1489h346q162 0 295.5 -22.5t244.5 -96.5q106 -71 162 -185.5t56 -266.5zM1310 901q0 114 -40.5 196.5t-122.5 137.5q-81 54 -173 72.5t-233 18.5h-165l-270 -1163h207q143 0 255.5 23.5
t212.5 80.5q161 92 245 265.5t84 368.5zM1327 2049l-315 -379h-229l-141 379h161l125 -256l242 256h157z" />
    <glyph glyph-name="dcaron" unicode="&#x10f;" horiz-adv-x="1326" 
d="M1322 1556l-360 -1556h-188l27 117q-127 -87 -204.5 -117.5t-168.5 -30.5q-158 0 -250.5 100t-92.5 291q0 161 50 304.5t136 251.5q85 107 201 169.5t246 62.5q89 0 164 -19t140 -57l112 484h188zM986 916q-67 35 -131.5 51.5t-137.5 16.5q-104 0 -185.5 -50t-139.5 -137
q-53 -79 -81.5 -190t-28.5 -215q0 -122 52.5 -186.5t170.5 -64.5q84 0 171.5 42t161.5 92zM1807 1556l-366 -505h-127l268 505h225z" />
    <glyph glyph-name="Dslash" unicode="&#x110;" horiz-adv-x="1568" 
d="M1519 918q0 -244 -124 -462t-339 -337q-132 -71 -270 -95t-313 -24h-402l172 744h-185l31 135h185l141 610h346q162 0 295.5 -22.5t244.5 -96.5q106 -71 162 -185.5t56 -266.5zM1310 901q0 114 -40.5 196.5t-122.5 137.5q-81 54 -173 72.5t-233 18.5h-165l-104 -447h361
l-31 -135h-361l-135 -581h207q143 0 255.5 23.5t212.5 80.5q161 92 245 265.5t84 368.5z" />
    <glyph glyph-name="dcroat" unicode="&#x111;" horiz-adv-x="1276" 
d="M1257 1272l-295 -1272h-188l27 117q-127 -87 -204.5 -117.5t-168.5 -30.5q-158 0 -250.5 100t-92.5 291q0 161 50 304.5t136 251.5q85 107 201 169.5t246 62.5q89 0 164 -19t140 -57l46 200h-364l30 130h365l35 154h188l-35 -154h182l-30 -130h-182zM986 916
q-67 35 -131.5 51.5t-137.5 16.5q-104 0 -185.5 -50t-139.5 -137q-53 -79 -81.5 -190t-28.5 -215q0 -122 52.5 -186.5t170.5 -64.5q84 0 171.5 42t161.5 92z" />
    <glyph glyph-name="Emacron" unicode="&#x112;" horiz-adv-x="1295" 
d="M1395 1489l-39 -169h-783l-96 -420h783l-39 -168h-783l-130 -563h783l-39 -169h-981l343 1489h981zM1348 1711h-850l35 151h850z" />
    <glyph glyph-name="emacron" unicode="&#x113;" horiz-adv-x="1220" 
d="M960 680q5 29 7 49t2 44q0 107 -58.5 167t-187.5 60q-142 0 -252 -88t-149 -232h638zM584 -26q-232 0 -364 109t-132 319q0 307 194 526.5t480 219.5q190 0 291 -94.5t101 -265.5q0 -30 -8.5 -95t-27.5 -151h-823q-6 -29 -8.5 -57t-2.5 -52q0 -141 86 -221.5t244 -80.5
q110 0 226.5 43t195.5 97h11l-41 -203q-50 -18 -90 -33t-102 -30t-110 -23t-120 -8zM1188 1338h-850l35 151h850z" />
    <glyph glyph-name="Ebreve" unicode="&#x114;" horiz-adv-x="1295" 
d="M1395 1489l-39 -169h-783l-96 -420h783l-39 -168h-783l-130 -563h783l-39 -169h-981l343 1489h981zM1349 2049q-47 -179 -167 -280.5t-281 -101.5q-146 0 -227 80.5t-81 230.5q0 19 1.5 34.5t3.5 36.5h166q-2 -18 -2.5 -33.5t-0.5 -26.5q0 -100 42 -146t122 -46
q85 0 153 56.5t106 195.5h165z" />
    <glyph glyph-name="ebreve" unicode="&#x115;" horiz-adv-x="1220" 
d="M960 680q5 29 7 49t2 44q0 107 -58.5 167t-187.5 60q-142 0 -252 -88t-149 -232h638zM584 -26q-232 0 -364 109t-132 319q0 307 194 526.5t480 219.5q190 0 291 -94.5t101 -265.5q0 -30 -8.5 -95t-27.5 -151h-823q-6 -29 -8.5 -57t-2.5 -52q0 -141 86 -221.5t244 -80.5
q110 0 226.5 43t195.5 97h11l-41 -203q-50 -18 -90 -33t-102 -30t-110 -23t-120 -8zM1209 1676q-47 -179 -167 -280.5t-281 -101.5q-146 0 -227 80.5t-81 230.5q0 19 1.5 34.5t3.5 36.5h166q-2 -18 -2.5 -33.5t-0.5 -26.5q0 -100 42 -146t122 -46q85 0 153 56.5t106 195.5
h165z" />
    <glyph glyph-name="Edot" unicode="&#x116;" horiz-adv-x="1295" 
d="M1395 1489l-39 -169h-783l-96 -420h783l-39 -168h-783l-130 -563h783l-39 -169h-981l343 1489h981zM1017 1677h-214l45 195h214z" />
    <glyph glyph-name="edot" unicode="&#x117;" horiz-adv-x="1220" 
d="M960 680q5 29 7 49t2 44q0 107 -58.5 167t-187.5 60q-142 0 -252 -88t-149 -232h638zM584 -26q-232 0 -364 109t-132 319q0 307 194 526.5t480 219.5q190 0 291 -94.5t101 -265.5q0 -30 -8.5 -95t-27.5 -151h-823q-6 -29 -8.5 -57t-2.5 -52q0 -141 86 -221.5t244 -80.5
q110 0 226.5 43t195.5 97h11l-41 -203q-50 -18 -90 -33t-102 -30t-110 -23t-120 -8zM867 1304h-214l45 195h214z" />
    <glyph glyph-name="Eogonek" unicode="&#x118;" horiz-adv-x="1295" 
d="M1395 1489l-39 -169h-782l-96 -420h782l-39 -168h-782l-130 -563h782l-39 -169h-269q-14 -35 -24.5 -81t-10.5 -75q0 -59 38.5 -89t112.5 -30q34 0 77.5 12t68.5 23h8l-35 -151q-56 -14 -94.5 -20t-80.5 -6q-121 0 -189 59.5t-68 167.5q0 54 15 102t33 88h-564l343 1489
h982z" />
    <glyph glyph-name="eogonek" unicode="&#x119;" horiz-adv-x="1220" 
d="M960 680q5 29 7 49t2 44q0 107 -58.5 167t-187.5 60q-142 0 -252 -88t-149 -232h638zM511 -22q-198 16 -310.5 124t-112.5 300q0 307 194 526.5t480 219.5q190 0 291 -94.5t101 -265.5q0 -30 -8.5 -95t-27.5 -151h-823q-6 -29 -8.5 -57t-2.5 -52q0 -141 86 -221.5
t244 -80.5q110 0 226.5 43t195.5 97h11l-41 -203q-50 -18 -90 -33t-102 -30q-42 -10 -78 -17t-75 -10q-8 -24 -17 -65.5t-9 -68.5q0 -59 38.5 -88.5t112.5 -29.5q32 0 73.5 12t66.5 23h8l-29 -152q-56 -14 -94.5 -20t-80.5 -6q-121 0 -189 59.5t-68 167.5q0 48 13 93.5
t25 74.5z" />
    <glyph glyph-name="Ecaron" unicode="&#x11a;" horiz-adv-x="1295" 
d="M1395 1489l-39 -169h-783l-96 -420h783l-39 -168h-783l-130 -563h783l-39 -169h-981l343 1489h981zM1320 2049l-315 -379h-229l-141 379h161l125 -256l242 256h157z" />
    <glyph glyph-name="ecaron" unicode="&#x11b;" horiz-adv-x="1220" 
d="M960 680q5 29 7 49t2 44q0 107 -58.5 167t-187.5 60q-142 0 -252 -88t-149 -232h638zM584 -26q-232 0 -364 109t-132 319q0 307 194 526.5t480 219.5q190 0 291 -94.5t101 -265.5q0 -30 -8.5 -95t-27.5 -151h-823q-6 -29 -8.5 -57t-2.5 -52q0 -141 86 -221.5t244 -80.5
q110 0 226.5 43t195.5 97h11l-41 -203q-50 -18 -90 -33t-102 -30t-110 -23t-120 -8zM1185 1676l-315 -379h-229l-141 379h161l125 -256l242 256h157z" />
    <glyph glyph-name="Gcircumflex" unicode="&#x11c;" horiz-adv-x="1588" 
d="M787 -29q-308 0 -481 152t-173 432q0 206 63.5 381t184.5 305q120 129 294.5 202t392.5 73q131 0 261.5 -31.5t266.5 -102.5l-45 -226h-18q-111 104 -241.5 150.5t-280.5 46.5q-165 0 -289 -65t-209 -173q-83 -106 -125.5 -247t-42.5 -284q0 -215 117.5 -332t347.5 -117
q101 0 189.5 18.5t166.5 47.5l84 381h-397l38 167h596l-148 -639q-66 -27 -119 -48.5t-133 -44.5q-69 -20 -142.5 -33t-157.5 -13zM1381 1670h-152l-130 260l-241 -260h-162l311 379h228z" />
    <glyph glyph-name="gcircumflex" unicode="&#x11d;" horiz-adv-x="1273" 
d="M1217 1117l-227 -993q-66 -284 -216.5 -415.5t-418.5 -131.5q-86 0 -173.5 13t-160.5 35l43 187h10q56 -25 151 -48t179 -23q95 0 161.5 24.5t109.5 66.5q42 42 68.5 97.5t41.5 124.5l23 98q-101 -68 -178 -101.5t-197 -33.5q-163 0 -255 99.5t-92 280.5
q0 145 47.5 281.5t132.5 242.5q83 103 199.5 165t249.5 62q96 0 171.5 -22t131.5 -57l23 48h176zM983 916q-64 33 -131.5 51.5t-136.5 18.5q-98 0 -178.5 -44.5t-138.5 -123.5q-55 -74 -85.5 -178.5t-30.5 -208.5q0 -118 54 -182.5t173 -64.5q83 0 168 35t167 88zM1106 1297
h-152l-130 260l-241 -260h-162l311 379h228z" />
    <glyph glyph-name="Gbreve" unicode="&#x11e;" horiz-adv-x="1588" 
d="M787 -29q-308 0 -481 152t-173 432q0 206 63.5 381t184.5 305q120 129 294.5 202t392.5 73q131 0 261.5 -31.5t266.5 -102.5l-45 -226h-18q-111 104 -241.5 150.5t-280.5 46.5q-165 0 -289 -65t-209 -173q-83 -106 -125.5 -247t-42.5 -284q0 -215 117.5 -332t347.5 -117
q101 0 189.5 18.5t166.5 47.5l84 381h-397l38 167h596l-148 -639q-66 -27 -119 -48.5t-133 -44.5q-69 -20 -142.5 -33t-157.5 -13zM1532 2049q-47 -179 -167 -280.5t-281 -101.5q-146 0 -227 80.5t-81 230.5q0 19 1.5 34.5t3.5 36.5h166q-2 -18 -2.5 -33.5t-0.5 -26.5
q0 -100 42 -146t122 -46q85 0 153 56.5t106 195.5h165z" />
    <glyph glyph-name="gbreve" unicode="&#x11f;" horiz-adv-x="1273" 
d="M1217 1117l-227 -993q-66 -284 -216.5 -415.5t-418.5 -131.5q-86 0 -173.5 13t-160.5 35l43 187h10q56 -25 151 -48t179 -23q95 0 161.5 24.5t109.5 66.5q42 42 68.5 97.5t41.5 124.5l23 98q-101 -68 -178 -101.5t-197 -33.5q-163 0 -255 99.5t-92 280.5
q0 145 47.5 281.5t132.5 242.5q83 103 199.5 165t249.5 62q96 0 171.5 -22t131.5 -57l23 48h176zM983 916q-64 33 -131.5 51.5t-136.5 18.5q-98 0 -178.5 -44.5t-138.5 -123.5q-55 -74 -85.5 -178.5t-30.5 -208.5q0 -118 54 -182.5t173 -64.5q83 0 168 35t167 88zM1207 1676
q-47 -179 -167 -280.5t-281 -101.5q-146 0 -227 80.5t-81 230.5q0 19 1.5 34.5t3.5 36.5h166q-2 -18 -2.5 -33.5t-0.5 -26.5q0 -100 42 -146t122 -46q85 0 153 56.5t106 195.5h165z" />
    <glyph glyph-name="Gdot" unicode="&#x120;" horiz-adv-x="1588" 
d="M787 -29q-308 0 -481 152t-173 432q0 206 63.5 381t184.5 305q120 129 294.5 202t392.5 73q131 0 261.5 -31.5t266.5 -102.5l-45 -226h-18q-111 104 -241.5 150.5t-280.5 46.5q-165 0 -289 -65t-209 -173q-83 -106 -125.5 -247t-42.5 -284q0 -215 117.5 -332t347.5 -117
q101 0 189.5 18.5t166.5 47.5l84 381h-397l38 167h596l-148 -639q-66 -27 -119 -48.5t-133 -44.5q-69 -20 -142.5 -33t-157.5 -13zM1126 1677h-214l45 195h214z" />
    <glyph glyph-name="gdot" unicode="&#x121;" horiz-adv-x="1273" 
d="M1217 1117l-227 -993q-66 -284 -216.5 -415.5t-418.5 -131.5q-86 0 -173.5 13t-160.5 35l43 187h10q56 -25 151 -48t179 -23q95 0 161.5 24.5t109.5 66.5q42 42 68.5 97.5t41.5 124.5l23 98q-101 -68 -178 -101.5t-197 -33.5q-163 0 -255 99.5t-92 280.5
q0 145 47.5 281.5t132.5 242.5q83 103 199.5 165t249.5 62q96 0 171.5 -22t131.5 -57l23 48h176zM983 916q-64 33 -131.5 51.5t-136.5 18.5q-98 0 -178.5 -44.5t-138.5 -123.5q-55 -74 -85.5 -178.5t-30.5 -208.5q0 -118 54 -182.5t173 -64.5q83 0 168 35t167 88zM847 1304
h-214l45 195h214z" />
    <glyph glyph-name="Gcedilla" unicode="&#x122;" horiz-adv-x="1588" 
d="M779 -28q-302 2 -474 153.5t-172 429.5q0 206 63.5 381t184.5 305q120 129 294.5 202t392.5 73q131 0 261.5 -31.5t266.5 -102.5l-45 -226h-18q-111 104 -241.5 150.5t-280.5 46.5q-165 0 -289 -65t-209 -173q-83 -106 -125.5 -247t-42.5 -284q0 -215 117.5 -332
t347.5 -117q101 0 189.5 18.5t166.5 47.5l84 381h-397l38 167h596l-148 -639q-66 -27 -119 -48t-133 -44q-36 -10 -75 -19.5t-79 -15.5q-10 -189 -118 -297.5t-281 -108.5q-43 0 -98 8.5t-97 21.5l33 148h9q24 -10 65.5 -23t91.5 -13q125 0 180.5 65t60.5 188z" />
    <glyph glyph-name="gcedilla" unicode="&#x123;" horiz-adv-x="1273" 
d="M1217 1117l-227 -993q-66 -284 -216.5 -415.5t-418.5 -131.5q-86 0 -173.5 13t-160.5 35l43 187h10q56 -25 151 -48t179 -23q95 0 161.5 24.5t109.5 66.5q42 42 68.5 97.5t41.5 124.5l23 98q-101 -68 -178 -101.5t-197 -33.5q-163 0 -255 99.5t-92 280.5
q0 145 47.5 281.5t132.5 242.5q83 103 199.5 165t249.5 62q96 0 171.5 -22t131.5 -57l23 48h176zM983 916q-64 33 -131.5 51.5t-136.5 18.5q-98 0 -178.5 -44.5t-138.5 -123.5q-55 -74 -85.5 -178.5t-30.5 -208.5q0 -118 54 -182.5t173 -64.5q83 0 168 35t167 88zM1061 1676
l-265 -374h-253l359 374h159z" />
    <glyph glyph-name="Hcircumflex" unicode="&#x124;" horiz-adv-x="1539" 
d="M1553 1489l-343 -1489h-198l169 732h-743l-169 -732h-198l343 1489h198l-135 -589h743l135 589h198zM1342 1670h-152l-130 260l-241 -260h-162l311 379h228z" />
    <glyph glyph-name="hcircumflex" unicode="&#x125;" horiz-adv-x="1296" 
d="M1175 862q0 -24 -4.5 -65t-12.5 -72l-168 -725h-188l147 636q12 53 18.5 92.5t6.5 78.5q0 84 -41.5 126.5t-149.5 42.5q-76 0 -167.5 -42t-178.5 -100l-193 -834h-188l359 1556h188l-130 -563q107 75 200.5 115t192.5 40q146 0 227.5 -73.5t81.5 -212.5zM1198 1670h-152
l-130 260l-241 -260h-162l311 379h228z" />
    <glyph glyph-name="Hbar" unicode="&#x126;" horiz-adv-x="1539" 
d="M1634 1113h-167l-257 -1113h-198l169 732h-743l-169 -732h-198l256 1113h-170l33 136h169l55 240h198l-55 -240h743l55 240h198l-55 -240h169zM1220 900l49 213h-743l-49 -213h743z" />
    <glyph glyph-name="hbar" unicode="&#x127;" horiz-adv-x="1296" 
d="M1175 862q0 -24 -4.5 -65t-12.5 -72l-168 -725h-188l147 636q12 53 18.5 92.5t6.5 78.5q0 84 -41.5 126.5t-149.5 42.5q-76 0 -167.5 -42t-178.5 -100l-193 -834h-188l294 1272h-168l30 130h168l35 154h188l-36 -154h323l-30 -130h-323l-64 -279q107 75 200.5 115
t192.5 40q146 0 227.5 -73.5t81.5 -212.5z" />
    <glyph glyph-name="Itilde" unicode="&#x128;" horiz-adv-x="862" 
d="M597 0h-590l33 145h195l278 1199h-195l33 145h590l-33 -145h-195l-278 -1199h195zM1097 1992q-39 -156 -110.5 -231t-177.5 -75q-55 0 -94 18t-73 58t-63.5 63t-65.5 23q-46 0 -76.5 -42t-49.5 -124h-125q35 152 113 228.5t174 76.5q50 0 91.5 -19.5t73.5 -55.5
q35 -40 65.5 -61t66.5 -21q45 0 78 43.5t50 118.5h123z" />
    <glyph glyph-name="itilde" unicode="&#x129;" horiz-adv-x="562" 
d="M504 1117l-258 -1117h-188l258 1117h188zM801 1596q-26 -126 -89 -192.5t-145 -66.5q-43 0 -66.5 12t-50.5 46q-23 33 -43.5 51t-42.5 18q-35 0 -57.5 -34.5t-36.5 -99.5h-112q25 128 90 193.5t143 65.5q48 0 72 -16t46 -42q29 -40 47 -54.5t38 -14.5q35 0 59 35.5
t36 98.5h112z" />
    <glyph glyph-name="Imacron" unicode="&#x12a;" horiz-adv-x="862" 
d="M597 0h-590l33 145h195l278 1199h-195l33 145h590l-33 -145h-195l-278 -1199h195zM1037 1711h-725l35 151h725z" />
    <glyph glyph-name="imacron" unicode="&#x12b;" horiz-adv-x="562" 
d="M504 1117l-258 -1117h-188l258 1117h188zM706 1338h-570l35 151h570z" />
    <glyph glyph-name="Ibreve" unicode="&#x12c;" horiz-adv-x="862" 
d="M597 0h-590l33 145h195l278 1199h-195l33 145h590l-33 -145h-195l-278 -1199h195zM1102 2049q-45 -173 -156.5 -277.5t-281.5 -104.5q-149 0 -223.5 81.5t-74.5 229.5q0 19 1.5 34.5t3.5 36.5h166q-2 -18 -2.5 -33.5t-0.5 -26.5q0 -102 37 -147t117 -45q88 0 150 59
t99 193h165z" />
    <glyph glyph-name="ibreve" unicode="&#x12d;" horiz-adv-x="562" 
d="M504 1117l-258 -1117h-188l258 1117h188zM779 1640q-34 -165 -123.5 -255.5t-223.5 -90.5q-113 0 -168.5 64t-55.5 173q0 30 3.5 56.5t8.5 52.5h146q-6 -27 -9.5 -58.5t-3.5 -50.5q0 -63 26 -91.5t76 -28.5q64 0 108.5 50.5t69.5 178.5h146z" />
    <glyph glyph-name="Iogonek" unicode="&#x12e;" horiz-adv-x="862" 
d="M245 0h-238l33 145h195l278 1199h-195l33 145h590l-33 -145h-195l-278 -1199h195l-33 -145h-198q-15 -31 -31.5 -80.5t-16.5 -89.5q0 -52 32.5 -78.5t97.5 -26.5q33 0 68 9.5t55 20.5h9l-36 -151q-38 -10 -80 -15.5t-76 -5.5q-102 0 -167 51.5t-65 156.5q0 49 15.5 103.5
t40.5 105.5z" />
    <glyph glyph-name="iogonek" unicode="&#x12f;" horiz-adv-x="562" 
d="M605 1499l-45 -195h-214l45 195h214zM0 -70.5q26 69.5 77 152.5l238 1035h190l-259 -1117h-64q-15 -31 -30.5 -80.5t-15.5 -89.5q0 -52 32.5 -78.5t97.5 -26.5q33 0 68 9.5t55 20.5h9l-36 -151q-38 -10 -80 -15.5t-76 -5.5q-102 0 -167 51.5t-65 156.5q0 69 26 138.5z
" />
    <glyph glyph-name="Idotaccent" unicode="&#x130;" horiz-adv-x="862" 
d="M597 0h-590l33 145h195l278 1199h-195l33 145h590l-33 -145h-195l-278 -1199h195zM771 1677h-214l45 195h214z" />
    <glyph glyph-name="dotlessi" unicode="&#x131;" horiz-adv-x="562" 
d="M505 1117l-258 -1117h-190l258 1117h190z" />
    <glyph glyph-name="IJ" unicode="&#x132;" horiz-adv-x="1783" 
d="M597 0h-590l33 145h195l278 1199h-195l33 145h590l-33 -145h-195l-278 -1199h195zM1561 387q-46 -197 -188 -302.5t-344 -105.5q-48 0 -126 8.5t-129 20.5l42 178h11q39 -14 95 -29t119 -15q91 0 151 23t94 64q36 43 57 103t36 130l200 876h-324l35 151h524z" />
    <glyph glyph-name="ij" unicode="&#x133;" horiz-adv-x="1257" 
d="M604 1499l-45 -195h-212l45 195h212zM504 1117l-258 -1117h-188l258 1117h188zM1259 1304h-214l45 195h214zM939 -27q-45 -194 -159.5 -295t-284.5 -101q-40 0 -105 8t-107 20l39 171h10q29 -13 68.5 -25.5t91.5 -12.5q70 0 117.5 21.5t77.5 64.5q29 42 48 104.5
t34 130.5l209 907h-233l35 151h423z" />
    <glyph glyph-name="Jcircumflex" unicode="&#x134;" horiz-adv-x="931" 
d="M709 387q-46 -197 -188 -302.5t-344 -105.5q-48 0 -126 8.5t-129 20.5l42 178h11q39 -14 95 -29t119 -15q91 0 151 23t94 64q36 43 57 103t36 130l200 876h-324l35 151h524zM1050 1670h-152l-130 260l-241 -260h-162l311 379h228z" />
    <glyph glyph-name="jcircumflex" unicode="&#x135;" horiz-adv-x="705" 
d="M387 -27q-45 -194 -159.5 -295t-284.5 -101q-40 0 -105 8t-107 20l39 171h10q29 -13 68.5 -25.5t91.5 -12.5q70 0 117.5 21.5t77.5 64.5q29 42 48 104.5t34 130.5l209 907h-233l35 151h423zM787 1297h-152l-120 260l-231 -260h-162l301 379h228z" />
    <glyph glyph-name="Kcedilla" unicode="&#x136;" horiz-adv-x="1419" 
d="M1285 0h-234l-459 665l-204 -173l-113 -492h-200l344 1489h200l-180 -773l875 773h252l-817 -713zM761 20q0 -206 -107.5 -324.5t-299.5 -118.5q-43 0 -98 8.5t-97 21.5l33 148h9q24 -10 65.5 -23t91.5 -13q128 0 183.5 68t55.5 233h164z" />
    <glyph glyph-name="kcedilla" unicode="&#x137;" horiz-adv-x="1202" 
d="M1082 0h-228l-357 491l-162 -131l-82 -360h-190l360 1556h190l-232 -1000l655 561h247l-637 -528zM629 20q0 -206 -107.5 -324.5t-299.5 -118.5q-43 0 -98 8.5t-97 21.5l33 148h9q24 -10 65.5 -23t91.5 -13q128 0 183.5 68t55.5 233h164z" />
    <glyph glyph-name="kgreenlandic" unicode="&#x138;" horiz-adv-x="1202" 
d="M1082 0h-228l-357 491l-162 -131l-82 -360h-190l258 1117h190l-130 -561l655 561h247l-637 -528z" />
    <glyph glyph-name="Lacute" unicode="&#x139;" horiz-adv-x="1140" 
d="M1013 0h-943l344 1489h200l-305 -1320h743zM1057 2049l-355 -374h-156l254 374h257z" />
    <glyph glyph-name="lacute" unicode="&#x13a;" horiz-adv-x="562" 
d="M606 1556l-360 -1556h-188l360 1556h188zM910 2049l-355 -374h-156l254 374h257z" />
    <glyph glyph-name="Lcedilla" unicode="&#x13b;" horiz-adv-x="1140" 
d="M576 0h-506l344 1489h200l-305 -1320h743l-39 -169h-279q-5 -195 -115.5 -309t-286.5 -114q-43 0 -98 8.5t-97 21.5l33 148h9q24 -10 65.5 -23t91.5 -13q126 0 183 66t57 215z" />
    <glyph glyph-name="lcedilla" unicode="&#x13c;" horiz-adv-x="562" 
d="M207 0h-150l360 1556h190l-355 -1536h112v-5q0 -202 -111 -320t-289 -118q-33 0 -89 7.5t-100 20.5l33 148h9q24 -10 63 -22t88 -12q125 0 182 67.5t57 213.5z" />
    <glyph glyph-name="Lcaron" unicode="&#x13d;" horiz-adv-x="1140" 
d="M1013 0h-943l344 1489h200l-305 -1320h743zM1198 1556l-367 -505h-127l269 505h225z" />
    <glyph glyph-name="lcaron" unicode="&#x13e;" horiz-adv-x="606" 
d="M606 1556l-360 -1556h-188l360 1556h188zM1084 1556l-366 -505h-127l268 505h225z" />
    <glyph glyph-name="Ldot" unicode="&#x13f;" horiz-adv-x="1140" 
d="M1013 0h-943l344 1489h200l-305 -1320h743zM978 523h-231l59 259h231z" />
    <glyph glyph-name="ldot" unicode="&#x140;" horiz-adv-x="939" 
d="M606 1556l-360 -1556h-188l360 1556h188zM859 524h-229l59 257h229z" />
    <glyph glyph-name="Lslash" unicode="&#x141;" horiz-adv-x="1140" 
d="M233 702l182 787h198l-148 -641l415 283l-40 -170l-414 -280l-118 -512h744l-39 -169h-942l124 535l-221 -152l39 170z" />
    <glyph glyph-name="lslash" unicode="&#x142;" horiz-adv-x="562" 
d="M234 763l184 793h188l-152 -656l216 149l-37 -159l-215 -146l-172 -744h-188l140 607l-204 -140l36 159z" />
    <glyph glyph-name="Nacute" unicode="&#x143;" horiz-adv-x="1532" 
d="M1208 0h-236l-407 1332l-308 -1332h-187l344 1489h298l372 -1216l281 1216h187zM1337 2049l-355 -374h-156l254 374h257z" />
    <glyph glyph-name="nacute" unicode="&#x144;" horiz-adv-x="1296" 
d="M1175 862q0 -24 -4.5 -65t-12.5 -72l-168 -725h-188l147 636q12 53 18.5 92.5t6.5 78.5q0 84 -41.5 126.5t-149.5 42.5q-76 0 -167.5 -42t-178.5 -100l-193 -834h-188l258 1117h188l-29 -124q107 75 200.5 115t192.5 40q146 0 227.5 -73.5t81.5 -212.5zM1188 1676
l-355 -374h-156l254 374h257z" />
    <glyph glyph-name="Ncedilla" unicode="&#x145;" horiz-adv-x="1532" 
d="M1208 0h-236l-407 1332l-308 -1332h-187l344 1489h298l372 -1216l281 1216h187zM749 20q0 -206 -107.5 -324.5t-299.5 -118.5q-43 0 -98 8.5t-97 21.5l33 148h9q24 -10 65.5 -23t91.5 -13q128 0 183.5 68t55.5 233h164z" />
    <glyph glyph-name="ncedilla" unicode="&#x146;" horiz-adv-x="1296" 
d="M1175 862q0 -24 -4.5 -65t-12.5 -72l-168 -725h-188l147 636q12 53 18.5 92.5t6.5 78.5q0 84 -41.5 126.5t-149.5 42.5q-76 0 -167.5 -42t-178.5 -100l-193 -834h-188l258 1117h188l-29 -124q107 75 200.5 115t192.5 40q146 0 227.5 -73.5t81.5 -212.5zM641 20
q0 -206 -107.5 -324.5t-299.5 -118.5q-43 0 -98 8.5t-97 21.5l33 148h9q24 -10 65.5 -23t91.5 -13q128 0 183.5 68t55.5 233h164z" />
    <glyph glyph-name="Ncaron" unicode="&#x147;" horiz-adv-x="1532" 
d="M1208 0h-236l-407 1332l-308 -1332h-187l344 1489h298l372 -1216l281 1216h187zM1423 2049l-315 -379h-229l-141 379h161l125 -256l242 256h157z" />
    <glyph glyph-name="ncaron" unicode="&#x148;" horiz-adv-x="1296" 
d="M1175 862q0 -24 -4.5 -65t-12.5 -72l-168 -725h-188l147 636q12 53 18.5 92.5t6.5 78.5q0 84 -41.5 126.5t-149.5 42.5q-76 0 -167.5 -42t-178.5 -100l-193 -834h-188l258 1117h188l-29 -124q107 75 200.5 115t192.5 40q146 0 227.5 -73.5t81.5 -212.5zM1202 1676
l-315 -379h-229l-141 379h161l125 -256l242 256h157z" />
    <glyph glyph-name="napostrophe" unicode="&#x149;" horiz-adv-x="1496" 
d="M1375 862q0 -24 -5.5 -68.5t-11.5 -68.5l-168 -725h-188l147 636q12 53 18.5 92.5t6.5 78.5q0 84 -41.5 126.5t-149.5 42.5q-76 0 -167.5 -42t-178.5 -100l-193 -834h-188l258 1117h188l-29 -124q107 75 200.5 115t192.5 40q146 0 227.5 -73.5t81.5 -212.5zM640 1556
l-400 -559h-142l294 559h248z" />
    <glyph glyph-name="Eng" unicode="&#x14a;" horiz-adv-x="1532" 
d="M1022 -10l-457 1342l-308 -1332h-187l344 1489h298l390 -1138l263 1138h187l-349 -1512q-48 -203 -170 -301.5t-305 -98.5q-39 0 -80 4t-77 10l37 165h11q21 -5 51 -10t60 -5q141 0 205 67t87 182z" />
    <glyph glyph-name="eng" unicode="&#x14b;" horiz-adv-x="1296" 
d="M455.5 -255.5q25.5 -4.5 54.5 -4.5q131 0 195.5 60.5t107.5 247.5l136 588q12 53 18.5 92.5t6.5 78.5q0 84 -41.5 126.5t-149.5 42.5q-76 0 -167.5 -42t-178.5 -100l-193 -834h-188l258 1117h188l-29 -124q107 75 200.5 115t192.5 40q146 0 227.5 -73.5t81.5 -212.5
q0 -24 -5 -64.5t-12 -72.5l-174 -753q-47 -202 -169.5 -298.5t-305.5 -96.5q-39 0 -77.5 3.5t-74.5 9.5l38 165h11q24 -6 49.5 -10.5z" />
    <glyph glyph-name="Omacron" unicode="&#x14c;" horiz-adv-x="1612" 
d="M1563 962q0 -194 -58.5 -374t-169.5 -317q-114 -141 -274 -221.5t-361 -80.5q-266 0 -416 145.5t-150 413.5q0 204 60 381t173 316q110 134 272.5 214.5t356.5 80.5q265 0 416 -144.5t151 -413.5zM1184 370q84 114 127 254.5t43 309.5q0 204 -102.5 313.5t-286.5 109.5
q-143 0 -258 -65.5t-198 -177.5q-80 -110 -123 -255.5t-43 -299.5q0 -206 102.5 -316.5t287.5 -110.5q141 0 256.5 65t194.5 173zM1438 1711h-850l35 151h850z" />
    <glyph glyph-name="omacron" unicode="&#x14d;" horiz-adv-x="1243" 
d="M1154 722q0 -150 -46 -288t-130 -240q-87 -106 -201 -165.5t-266 -59.5q-199 0 -310.5 113.5t-111.5 313.5q0 150 45.5 286t131.5 242q83 102 203.5 163t263.5 61q193 0 307 -110t114 -316zM848 300q54 80 82.5 185t28.5 222q0 140 -67 212t-189 72q-97 0 -174 -46.5
t-133 -127.5q-54 -79 -83 -185t-29 -220q0 -138 67 -212t190 -74q96 0 174 46t133 128zM1174 1338h-850l35 151h850z" />
    <glyph glyph-name="Obreve" unicode="&#x14e;" horiz-adv-x="1612" 
d="M1563 962q0 -194 -58.5 -374t-169.5 -317q-114 -141 -274 -221.5t-361 -80.5q-266 0 -416 145.5t-150 413.5q0 204 60 381t173 316q110 134 272.5 214.5t356.5 80.5q265 0 416 -144.5t151 -413.5zM1184 370q84 114 127 254.5t43 309.5q0 204 -102.5 313.5t-286.5 109.5
q-143 0 -258 -65.5t-198 -177.5q-80 -110 -123 -255.5t-43 -299.5q0 -206 102.5 -316.5t287.5 -110.5q141 0 256.5 65t194.5 173zM1453 2049q-47 -179 -167 -280.5t-281 -101.5q-146 0 -227 80.5t-81 230.5q0 19 1.5 34.5t3.5 36.5h166q-2 -18 -2.5 -33.5t-0.5 -26.5
q0 -100 42 -146t122 -46q85 0 153 56.5t106 195.5h165z" />
    <glyph glyph-name="obreve" unicode="&#x14f;" horiz-adv-x="1243" 
d="M1154 722q0 -150 -46 -288t-130 -240q-87 -106 -201 -165.5t-266 -59.5q-199 0 -310.5 113.5t-111.5 313.5q0 150 45.5 286t131.5 242q83 102 203.5 163t263.5 61q193 0 307 -110t114 -316zM848 300q54 80 82.5 185t28.5 222q0 140 -67 212t-189 72q-97 0 -174 -46.5
t-133 -127.5q-54 -79 -83 -185t-29 -220q0 -138 67 -212t190 -74q96 0 174 46t133 128zM1192 1676q-47 -179 -167 -280.5t-281 -101.5q-146 0 -227 80.5t-81 230.5q0 19 1.5 34.5t3.5 36.5h166q-2 -18 -2.5 -33.5t-0.5 -26.5q0 -100 42 -146t122 -46q85 0 153 56.5
t106 195.5h165z" />
    <glyph glyph-name="Odblacute" unicode="&#x150;" horiz-adv-x="1612" 
d="M1563 962q0 -194 -58.5 -374t-169.5 -317q-114 -141 -274 -221.5t-361 -80.5q-266 0 -416 145.5t-150 413.5q0 204 60 381t173 316q110 134 272.5 214.5t356.5 80.5q265 0 416 -144.5t151 -413.5zM1184 370q84 114 127 254.5t43 309.5q0 204 -102.5 313.5t-286.5 109.5
q-143 0 -258 -65.5t-198 -177.5q-80 -110 -123 -255.5t-43 -299.5q0 -206 102.5 -316.5t287.5 -110.5q141 0 256.5 65t194.5 173zM1519 2049l-330 -374h-139l241 374h228zM1115 2049l-330 -374h-139l241 374h228z" />
    <glyph glyph-name="odblacute" unicode="&#x151;" horiz-adv-x="1243" 
d="M1154 722q0 -150 -46 -288t-130 -240q-87 -106 -201 -165.5t-266 -59.5q-199 0 -310.5 113.5t-111.5 313.5q0 150 45.5 286t131.5 242q83 102 203.5 163t263.5 61q193 0 307 -110t114 -316zM848 300q54 80 82.5 185t28.5 222q0 140 -67 212t-189 72q-97 0 -174 -46.5
t-133 -127.5q-54 -79 -83 -185t-29 -220q0 -138 67 -212t190 -74q96 0 174 46t133 128zM1289 1676l-330 -374h-139l241 374h228zM885 1676l-330 -374h-139l241 374h228z" />
    <glyph glyph-name="OE" unicode="&#x152;" horiz-adv-x="2191" 
d="M1947 0h-1062q-218 0 -337 31.5t-198 88.5q-103 75 -160 192.5t-57 267.5q0 251 123 461t341 329q103 57 236.5 88t349.5 31h1108l-39 -169h-762l-97 -420h762l-39 -168h-762l-130 -563h762zM1024 165l268 1159h-153q-141 0 -236.5 -17t-205.5 -74
q-157 -80 -256.5 -253.5t-99.5 -390.5q0 -107 35 -188.5t110 -135.5q92 -65 184.5 -82.5t240.5 -17.5h113z" />
    <glyph glyph-name="oe" unicode="&#x153;" horiz-adv-x="2008" 
d="M1906 542h-807q-6 -30 -8 -61t-2 -55q0 -139 85 -217t235 -78q103 0 216 39.5t197 96.5h12l-41 -199q-85 -35 -193 -64.5t-219 -29.5q-164 0 -270 58.5t-161 167.5q-100 -118 -214 -174.5t-239 -56.5q-195 0 -302 111.5t-107 311.5q0 147 45 284t130 244
q81 103 201 165.5t261 62.5q132 0 222.5 -55.5t140.5 -179.5q92 106 211 170.5t262 64.5q181 0 281 -91t100 -267q0 -33 -8 -96t-28 -152zM1748 680q5 28 7.5 50t2.5 46q0 111 -59 167.5t-177 56.5q-135 0 -244 -85.5t-151 -234.5h621zM834 304q51 80 78.5 186.5t27.5 225.5
q0 138 -64 207t-180 69q-177 0 -294 -167.5t-117 -417.5q0 -138 63 -210t181 -72q98 0 176 49t129 130z" />
    <glyph glyph-name="Racute" unicode="&#x154;" horiz-adv-x="1424" 
d="M1093 1119q0 53 -16 89.5t-49 62.5q-38 31 -93 43t-135 12h-224l-133 -574h210q98 0 170 18t131 63q66 50 102.5 125.5t36.5 160.5zM1315 0h-233l-392 595h-283l-137 -595h-200l343 1489h406q136 0 221 -17.5t148 -63.5q56 -41 88 -99t32 -145q0 -186 -116.5 -326.5
t-305.5 -195.5zM1210 2049l-355 -374h-156l254 374h257z" />
    <glyph glyph-name="racute" unicode="&#x155;" horiz-adv-x="874" 
d="M958 919h-10q-40 10 -74.5 14.5t-83.5 4.5q-94 0 -186.5 -42.5t-177.5 -102.5l-180 -793h-190l255 1117h190l-38 -165q133 93 225.5 129t177.5 36q49 0 71 -2.5t64 -9.5zM990 1676l-355 -374h-156l254 374h257z" />
    <glyph glyph-name="Rcedilla" unicode="&#x156;" horiz-adv-x="1424" 
d="M1093 1119q0 53 -16 89.5t-49 62.5q-38 31 -93 43t-135 12h-224l-133 -574h210q98 0 170 18t131 63q66 50 102.5 125.5t36.5 160.5zM1315 0h-233l-392 595h-283l-137 -595h-200l343 1489h406q136 0 221 -17.5t148 -63.5q56 -41 88 -99t32 -145q0 -186 -116.5 -326.5
t-305.5 -195.5zM769 20q0 -206 -107.5 -324.5t-299.5 -118.5q-43 0 -98 8.5t-97 21.5l33 148h9q24 -10 65.5 -23t91.5 -13q128 0 183.5 68t55.5 233h164z" />
    <glyph glyph-name="rcedilla" unicode="&#x157;" horiz-adv-x="874" 
d="M-203 -395l33 148h9q24 -10 63 -22t88 -12q137 0 185.5 74t50.5 207h-170l255 1117h190l-38 -165q133 93 225.5 129t177.5 36q49 0 71 -2.5t64 -9.5l-43 -186h-10q-40 10 -74.5 14.5t-83.5 4.5q-94 0 -186.5 -42.5t-177.5 -102.5l-176 -773h133v-5q0 -202 -109.5 -320
t-287.5 -118q-33 0 -89 7.5t-100 20.5z" />
    <glyph glyph-name="Rcaron" unicode="&#x158;" horiz-adv-x="1424" 
d="M1093 1119q0 53 -16 89.5t-49 62.5q-38 31 -93 43t-135 12h-224l-133 -574h210q98 0 170 18t131 63q66 50 102.5 125.5t36.5 160.5zM1315 0h-233l-392 595h-283l-137 -595h-200l343 1489h406q136 0 221 -17.5t148 -63.5q56 -41 88 -99t32 -145q0 -186 -116.5 -326.5
t-305.5 -195.5zM1250 2049l-315 -379h-229l-141 379h161l125 -256l242 256h157z" />
    <glyph glyph-name="rcaron" unicode="&#x159;" horiz-adv-x="874" 
d="M958 919h-10q-40 10 -74.5 14.5t-83.5 4.5q-94 0 -186.5 -42.5t-177.5 -102.5l-180 -793h-190l255 1117h190l-38 -165q133 93 225.5 129t177.5 36q49 0 71 -2.5t64 -9.5zM1074 1676l-315 -379h-229l-141 379h161l125 -256l242 256h157z" />
    <glyph glyph-name="Sacute" unicode="&#x15a;" horiz-adv-x="1400" 
d="M585 -27q-145 0 -276 30.5t-257 93.5l48 227h14q96 -91 235.5 -139.5t269.5 -48.5q213 0 326.5 84.5t113.5 215.5q0 69 -40.5 115t-118.5 68q-65 18 -154.5 34.5t-170.5 35.5q-157 35 -243 120t-86 211q0 213 180.5 354.5t466.5 141.5q156 0 283.5 -32.5t219.5 -76.5
l-45 -213h-14q-71 65 -202.5 112t-276.5 47q-182 0 -290.5 -80t-108.5 -203q0 -66 39 -116t139 -75q64 -15 170 -36.5t178 -40.5q142 -39 215.5 -116t73.5 -194q0 -98 -48 -195t-134 -166q-92 -74 -215.5 -116t-291.5 -42zM1246 2049l-355 -374h-156l254 374h257z" />
    <glyph glyph-name="sacute" unicode="&#x15b;" horiz-adv-x="1067" 
d="M405 -27q-125 0 -223.5 31t-164.5 67l42 201h10q21 -18 54.5 -42.5t85.5 -48.5q47 -23 107.5 -39.5t129.5 -16.5q141 0 221 52t80 153q0 53 -41 81.5t-118 46.5q-39 9 -93.5 20t-110.5 26q-117 33 -173 95.5t-56 152.5q0 78 34 146t101 125q64 54 163 87.5t220 33.5
q100 0 199.5 -25t162.5 -62l-40 -192h-10q-16 13 -48.5 35t-82.5 45q-43 19 -100.5 33t-119.5 14q-125 0 -203 -52.5t-78 -143.5q0 -50 38 -83.5t116 -52.5q49 -12 102.5 -22.5t103.5 -22.5q116 -29 174.5 -90t58.5 -153q0 -77 -36.5 -150.5t-105.5 -127.5q-71 -57 -172 -89
t-227 -32zM991 1676l-355 -374h-156l254 374h257z" />
    <glyph glyph-name="Scircumflex" unicode="&#x15c;" horiz-adv-x="1400" 
d="M585 -27q-145 0 -276 30.5t-257 93.5l48 227h14q96 -91 235.5 -139.5t269.5 -48.5q213 0 326.5 84.5t113.5 215.5q0 69 -40.5 115t-118.5 68q-65 18 -154.5 34.5t-170.5 35.5q-157 35 -243 120t-86 211q0 213 180.5 354.5t466.5 141.5q156 0 283.5 -32.5t219.5 -76.5
l-45 -213h-14q-71 65 -202.5 112t-276.5 47q-182 0 -290.5 -80t-108.5 -203q0 -66 39 -116t139 -75q64 -15 170 -36.5t178 -40.5q142 -39 215.5 -116t73.5 -194q0 -98 -48 -195t-134 -166q-92 -74 -215.5 -116t-291.5 -42zM1227 1670h-152l-130 260l-241 -260h-162l311 379
h228z" />
    <glyph glyph-name="scircumflex" unicode="&#x15d;" horiz-adv-x="1067" 
d="M405 -27q-125 0 -223.5 31t-164.5 67l42 201h10q21 -18 54.5 -42.5t85.5 -48.5q47 -23 107.5 -39.5t129.5 -16.5q141 0 221 52t80 153q0 53 -41 81.5t-118 46.5q-39 9 -93.5 20t-110.5 26q-117 33 -173 95.5t-56 152.5q0 78 34 146t101 125q64 54 163 87.5t220 33.5
q100 0 199.5 -25t162.5 -62l-40 -192h-10q-16 13 -48.5 35t-82.5 45q-43 19 -100.5 33t-119.5 14q-125 0 -203 -52.5t-78 -143.5q0 -50 38 -83.5t116 -52.5q49 -12 102.5 -22.5t103.5 -22.5q116 -29 174.5 -90t58.5 -153q0 -77 -36.5 -150.5t-105.5 -127.5q-71 -57 -172 -89
t-227 -32zM991 1297h-152l-130 260l-241 -260h-162l311 379h228z" />
    <glyph glyph-name="Scedilla" unicode="&#x15e;" horiz-adv-x="1400" 
d="M585 -27q-145 0 -276 30.5t-257 93.5l48 227h14q96 -91 235.5 -139.5t269.5 -48.5q213 0 326.5 84.5t113.5 215.5q0 69 -40.5 115t-118.5 68q-65 18 -154.5 34.5t-170.5 35.5q-157 35 -243 120t-86 211q0 213 180.5 354.5t466.5 141.5q156 0 283.5 -32.5t219.5 -76.5
l-45 -213h-14q-71 65 -202.5 112t-276.5 47q-182 0 -290.5 -80t-108.5 -203q0 -66 39 -116t139 -75q64 -15 170 -36.5t178 -40.5q142 -39 215.5 -116t73.5 -194q0 -98 -48 -195t-134 -166q-58 -46 -131 -82t-157 -53q0 -182 -110 -300.5t-289 -118.5q-43 0 -98 8.5t-97 21.5
l33 148h9q24 -10 65.5 -23t91.5 -13q125 0 182 64.5t60 191.5q-16 0 -33 -1t-33 -1z" />
    <glyph glyph-name="scedilla" unicode="&#x15f;" horiz-adv-x="1067" 
d="M405 -26q-125 0 -223.5 30.5t-164.5 66.5l42 201h10q21 -18 54.5 -42.5t85.5 -48.5q47 -23 107.5 -39.5t129.5 -16.5q141 0 221 52t80 153q0 53 -41 81.5t-118 46.5q-39 9 -93.5 20t-110.5 26q-117 33 -173 95.5t-56 152.5q0 78 34 146t101 125q64 54 163 87.5t220 33.5
q100 0 199.5 -25t162.5 -62l-40 -192h-10q-16 13 -48.5 35t-82.5 45q-43 19 -100.5 33t-119.5 14q-125 0 -203 -52.5t-78 -143.5q0 -50 38 -83.5t116 -52.5q49 -12 102.5 -22.5t103.5 -22.5q116 -29 174.5 -90t58.5 -153q0 -77 -36.5 -150.5t-105.5 -127.5q-33 -26 -73 -47
t-85 -36q0 -196 -110.5 -315t-289.5 -119q-43 0 -98 8.5t-97 21.5l33 148h9q24 -10 65.5 -23t91.5 -13q125 0 182.5 66t59.5 193q-21 -2 -43 -3t-44 -1z" />
    <glyph glyph-name="Scaron" unicode="&#x160;" horiz-adv-x="1400" 
d="M585 -27q-145 0 -276 30.5t-257 93.5l48 227h14q96 -91 235.5 -139.5t269.5 -48.5q213 0 326.5 84.5t113.5 215.5q0 69 -40.5 115t-118.5 68q-65 18 -154.5 34.5t-170.5 35.5q-157 35 -243 120t-86 211q0 213 180.5 354.5t466.5 141.5q156 0 283.5 -32.5t219.5 -76.5
l-45 -213h-14q-71 65 -202.5 112t-276.5 47q-182 0 -290.5 -80t-108.5 -203q0 -66 39 -116t139 -75q64 -15 170 -36.5t178 -40.5q142 -39 215.5 -116t73.5 -194q0 -98 -48 -195t-134 -166q-92 -74 -215.5 -116t-291.5 -42zM1308 2049l-315 -379h-229l-141 379h161l125 -256
l242 256h157z" />
    <glyph glyph-name="scaron" unicode="&#x161;" horiz-adv-x="1067" 
d="M405 -27q-125 0 -223.5 31t-164.5 67l42 201h10q21 -18 54.5 -42.5t85.5 -48.5q47 -23 107.5 -39.5t129.5 -16.5q141 0 221 52t80 153q0 53 -41 81.5t-118 46.5q-39 9 -93.5 20t-110.5 26q-117 33 -173 95.5t-56 152.5q0 78 34 146t101 125q64 54 163 87.5t220 33.5
q100 0 199.5 -25t162.5 -62l-40 -192h-10q-16 13 -48.5 35t-82.5 45q-43 19 -100.5 33t-119.5 14q-125 0 -203 -52.5t-78 -143.5q0 -50 38 -83.5t116 -52.5q49 -12 102.5 -22.5t103.5 -22.5q116 -29 174.5 -90t58.5 -153q0 -77 -36.5 -150.5t-105.5 -127.5q-71 -57 -172 -89
t-227 -32zM1102 1676l-315 -379h-229l-141 379h161l125 -256l242 256h157z" />
    <glyph glyph-name="Tcedilla" unicode="&#x162;" horiz-adv-x="1262" 
d="M395 -211q57 70 57 211h-50l305 1320h-531l38 169h1262l-38 -169h-531l-301 -1304q0 -201 -111 -320t-290 -119q-43 0 -98 8.5t-97 21.5l33 148h9q24 -10 65.5 -23t91.5 -13q129 0 186 70z" />
    <glyph glyph-name="tcedilla" unicode="&#x163;" horiz-adv-x="807" 
d="M586 -4q-1 -187 -110 -303t-288 -116q-43 0 -98 8.5t-97 21.5l33 148h9q24 -10 65.5 -23t91.5 -13q125 0 182.5 66t59.5 194h-9h-8q-138 0 -213.5 60t-75.5 191q0 32 4.5 63.5t12.5 71.5l139 600h-127l34 152h127l75 321h188l-75 -321h388l-34 -152h-388l-120 -515
q-10 -39 -18 -89.5t-8 -80.5q0 -73 37 -108.5t137 -35.5q41 0 97.5 14t76.5 22h10l-35 -162q-15 -3 -31 -7t-32 -7z" />
    <glyph glyph-name="Tcaron" unicode="&#x164;" horiz-adv-x="1262" 
d="M1438 1320h-531l-305 -1320h-200l305 1320h-531l38 169h1262zM1278 2049l-315 -379h-229l-141 379h161l125 -256l242 256h157z" />
    <glyph glyph-name="tcaron" unicode="&#x165;" horiz-adv-x="807" 
d="M894 1117l-34 -152h-388l-120 -515q-10 -39 -18 -89.5t-8 -80.5q0 -73 37 -108.5t137 -35.5q41 0 97.5 14t76.5 22h10l-35 -162q-56 -14 -119.5 -23t-112.5 -9q-138 0 -213.5 60.5t-75.5 191.5q0 32 4.5 63.5t12.5 71.5l139 600h-127l34 152h127l75 321h188l-75 -321h388
zM1177 1797l-365 -495h-127l267 495h225z" />
    <glyph glyph-name="Tbar" unicode="&#x166;" horiz-adv-x="1262" 
d="M1105 740h-332l-171 -740h-200l171 740h-332l33 139h331l102 441h-531l38 169h1262l-38 -169h-531l-102 -441h333z" />
    <glyph glyph-name="tbar" unicode="&#x167;" horiz-adv-x="807" 
d="M705 667l-29 -130h-303l-21 -87q-9 -39 -17.5 -89.5t-8.5 -80.5q0 -73 37 -108.5t137 -35.5q41 0 97.5 14t76.5 22h10l-35 -162q-56 -14 -119.5 -23t-112.5 -9q-138 0 -213.5 60.5t-75.5 191.5q0 32 4 64t13 71l40 172h-127l29 130h128l69 298h-127l34 152h127l75 321
h188l-75 -321h388l-34 -152h-388l-69 -298h302z" />
    <glyph glyph-name="Utilde" unicode="&#x168;" horiz-adv-x="1499" 
d="M1330 598q-39 -167 -99 -284.5t-159 -198.5q-92 -74 -199.5 -110t-252.5 -36q-235 0 -350 106t-115 293q0 63 8.5 117t21.5 113l206 891h200l-208 -901q-12 -47 -19.5 -105.5t-7.5 -91.5q0 -126 75 -192.5t224 -66.5q107 0 188 33t141 99q54 62 86.5 137.5t56.5 181.5
l209 906h200zM1430 1992q-39 -156 -110.5 -231t-177.5 -75q-55 0 -94 18t-73 58t-63.5 63t-65.5 23q-46 0 -76.5 -42t-49.5 -124h-125q35 152 113 228.5t174 76.5q50 0 91.5 -19.5t73.5 -55.5q35 -40 65.5 -61t66.5 -21q45 0 78 43.5t50 118.5h123z" />
    <glyph glyph-name="utilde" unicode="&#x169;" horiz-adv-x="1296" 
d="M1240 1117l-258 -1117h-188l29 124q-107 -73 -199.5 -114t-195.5 -41q-144 0 -225 72.5t-81 211.5q0 34 4.5 66t12.5 73l167 725h188l-147 -636q-9 -39 -17 -89t-8 -79q0 -86 43.5 -129t148.5 -43q74 0 169.5 43t176.5 99l192 834h188zM1238 1619q-39 -156 -110.5 -231
t-177.5 -75q-55 0 -94 18t-73 58t-63.5 63t-65.5 23q-46 0 -76.5 -42t-49.5 -124h-125q35 152 113 228.5t174 76.5q50 0 91.5 -19.5t73.5 -55.5q35 -40 65.5 -61t66.5 -21q45 0 78 43.5t50 118.5h123z" />
    <glyph glyph-name="Umacron" unicode="&#x16a;" horiz-adv-x="1499" 
d="M1330 598q-39 -167 -99 -284.5t-159 -198.5q-92 -74 -199.5 -110t-252.5 -36q-235 0 -350 106t-115 293q0 63 8.5 117t21.5 113l206 891h200l-208 -901q-12 -47 -19.5 -105.5t-7.5 -91.5q0 -126 75 -192.5t224 -66.5q107 0 188 33t141 99q54 62 86.5 137.5t56.5 181.5
l209 906h200zM1411 1711h-850l35 151h850z" />
    <glyph glyph-name="umacron" unicode="&#x16b;" horiz-adv-x="1296" 
d="M1240 1117l-258 -1117h-188l29 124q-107 -73 -199.5 -114t-195.5 -41q-144 0 -225 72.5t-81 211.5q0 34 4.5 66t12.5 73l167 725h188l-147 -636q-9 -39 -17 -89t-8 -79q0 -86 43.5 -129t148.5 -43q74 0 169.5 43t176.5 99l192 834h188zM1223 1338h-850l35 151h850z" />
    <glyph glyph-name="Ubreve" unicode="&#x16c;" horiz-adv-x="1499" 
d="M1330 598q-39 -167 -99 -284.5t-159 -198.5q-92 -74 -199.5 -110t-252.5 -36q-235 0 -350 106t-115 293q0 63 8.5 117t21.5 113l206 891h200l-208 -901q-12 -47 -19.5 -105.5t-7.5 -91.5q0 -126 75 -192.5t224 -66.5q107 0 188 33t141 99q54 62 86.5 137.5t56.5 181.5
l209 906h200zM1422 2049q-47 -179 -167 -280.5t-281 -101.5q-146 0 -227 80.5t-81 230.5q0 19 1.5 34.5t3.5 36.5h166q-2 -18 -2.5 -33.5t-0.5 -26.5q0 -100 42 -146t122 -46q85 0 153 56.5t106 195.5h165z" />
    <glyph glyph-name="ubreve" unicode="&#x16d;" horiz-adv-x="1291" 
d="M1240 1117l-258 -1117h-188l29 124q-107 -73 -199.5 -114t-195.5 -41q-144 0 -225 72.5t-81 211.5q0 34 4.5 66t12.5 73l167 725h188l-147 -636q-9 -39 -17 -89t-8 -79q0 -86 43.5 -129t148.5 -43q74 0 169.5 43t176.5 99l192 834h188zM1225 1676q-47 -179 -167 -280.5
t-281 -101.5q-146 0 -227 80.5t-81 230.5q0 19 1.5 34.5t3.5 36.5h166q-2 -18 -2.5 -33.5t-0.5 -26.5q0 -100 42 -146t122 -46q85 0 153 56.5t106 195.5h165z" />
    <glyph glyph-name="Uring" unicode="&#x16e;" horiz-adv-x="1499" 
d="M1330 598q-39 -167 -99 -284.5t-159 -198.5q-92 -74 -199.5 -110t-252.5 -36q-235 0 -350 106t-115 293q0 63 8.5 117t21.5 113l206 891h200l-208 -901q-12 -47 -19.5 -105.5t-7.5 -91.5q0 -126 75 -192.5t224 -66.5q107 0 188 33t141 99q54 62 86.5 137.5t56.5 181.5
l209 906h200zM939 1359q-129 0 -213.5 81.5t-84.5 203.5q0 159 125 277t287 118q130 0 214.5 -79.5t84.5 -197.5q0 -160 -122.5 -281.5t-290.5 -121.5zM1205 1738q0 72 -47.5 121.5t-125.5 49.5q-97 0 -170 -72.5t-74 -170.5q0 -74 47.5 -124.5t124.5 -50.5q97 0 171 75
t74 172z" />
    <glyph glyph-name="uring" unicode="&#x16f;" horiz-adv-x="1296" 
d="M1240 1117l-258 -1117h-188l29 124q-107 -73 -199.5 -114t-195.5 -41q-144 0 -225 72.5t-81 211.5q0 34 4.5 66t12.5 73l167 725h188l-147 -636q-9 -39 -17 -89t-8 -79q0 -86 43.5 -129t148.5 -43q74 0 169.5 43t176.5 99l192 834h188zM764 1143q-129 0 -213.5 81.5
t-84.5 203.5q0 159 125 277t287 118q130 0 214.5 -79.5t84.5 -197.5q0 -160 -122.5 -281.5t-290.5 -121.5zM1030 1522q0 72 -47.5 121.5t-125.5 49.5q-97 0 -170 -72.5t-74 -170.5q0 -74 47.5 -124.5t124.5 -50.5q97 0 171 75t74 172z" />
    <glyph glyph-name="Udblacute" unicode="&#x170;" horiz-adv-x="1499" 
d="M1330 598q-39 -167 -99 -284.5t-159 -198.5q-92 -74 -199.5 -110t-252.5 -36q-235 0 -350 106t-115 293q0 63 8.5 117t21.5 113l206 891h200l-208 -901q-12 -47 -19.5 -105.5t-7.5 -91.5q0 -126 75 -192.5t224 -66.5q107 0 188 33t141 99q54 62 86.5 137.5t56.5 181.5
l209 906h200zM1535 2049l-330 -374h-139l241 374h228zM1131 2049l-330 -374h-139l241 374h228z" />
    <glyph glyph-name="udblacute" unicode="&#x171;" horiz-adv-x="1296" 
d="M1240 1117l-258 -1117h-188l29 124q-107 -73 -199.5 -114t-195.5 -41q-144 0 -225 72.5t-81 211.5q0 34 4.5 66t12.5 73l167 725h188l-147 -636q-9 -39 -17 -89t-8 -79q0 -86 43.5 -129t148.5 -43q74 0 169.5 43t176.5 99l192 834h188zM1316 1676l-330 -374h-139l241 374
h228zM912 1676l-330 -374h-139l241 374h228z" />
    <glyph glyph-name="Uogonek" unicode="&#x172;" horiz-adv-x="1499" 
d="M630 -190q0 45 10 83t25 78q-11 0 -22.5 -0.5t-22.5 -0.5q-235 0 -350 105.5t-115 292.5q0 63 8.5 117t21.5 113l206 891h200l-208 -901q-12 -47 -19.5 -105.5t-7.5 -91.5q0 -126 75 -192.5t224 -66.5q107 0 188 33t141 99q54 62 86.5 137.5t56.5 181.5l209 906h200
l-206 -891q-39 -167 -99 -284.5t-159 -198.5q-55 -44 -116 -75t-131 -47q-14 -36 -23.5 -77t-9.5 -72q0 -59 38.5 -89t112.5 -30q34 0 77.5 12t68.5 23h8l-35 -151q-56 -14 -94.5 -20t-80.5 -6q-122 0 -189.5 59.5t-67.5 167.5z" />
    <glyph glyph-name="uogonek" unicode="&#x173;" horiz-adv-x="1296" 
d="M755.5 -94q15.5 46 38.5 94l29 124q-107 -73 -199.5 -114t-195.5 -41q-144 0 -225 72.5t-81 211.5q0 34 4.5 66t12.5 73l167 725h188l-147 -636q-9 -39 -17 -89t-8 -79q0 -86 43.5 -129t148.5 -43q74 0 169.5 43t176.5 99l192 834h188l-258 -1117h-28q-14 -25 -33 -73
t-19 -83q0 -59 38.5 -89t112.5 -30q34 0 77.5 12t68.5 23h8l-35 -151q-56 -14 -94.5 -20t-80.5 -6q-120 0 -188.5 59t-68.5 168q0 50 15.5 96z" />
    <glyph glyph-name="Wcircumflex" unicode="&#x174;" horiz-adv-x="2028" 
d="M2138 1489l-715 -1489h-229l-44 1233l-578 -1233h-220l-61 1489h201l40 -1236l583 1236h201l40 -1248l587 1248h195zM1550 1670h-152l-130 260l-241 -260h-162l311 379h228z" />
    <glyph glyph-name="wcircumflex" unicode="&#x175;" horiz-adv-x="1676" 
d="M1705 1117l-519 -1117h-176l-112 863l-461 -863h-174l-70 1117h192l29 -864l456 864h157l109 -864l372 864h197zM1292 1297h-152l-130 260l-241 -260h-162l311 379h228z" />
    <glyph glyph-name="Ycircumflex" unicode="&#x176;" horiz-adv-x="1260" 
d="M1463 1489l-713 -836l-151 -653h-200l146 632l-332 857h212l258 -669l563 669h217zM1190 1670h-152l-130 260l-241 -260h-162l311 379h228z" />
    <glyph glyph-name="ycircumflex" unicode="&#x177;" horiz-adv-x="1210" 
d="M258 -412h-207l325 477l-202 1052h193l158 -831l534 831h205zM1064 1297h-152l-130 260l-241 -260h-162l311 379h228z" />
    <glyph glyph-name="Ydieresis" unicode="&#x178;" horiz-adv-x="1260" 
d="M1463 1489l-713 -836l-151 -653h-200l146 632l-332 857h212l258 -669l563 669h217zM1158 1677h-201l45 195h201zM743 1677h-201l45 195h201z" />
    <glyph glyph-name="Zacute" unicode="&#x179;" horiz-adv-x="1403" 
d="M1164 0h-1162l41 182l1153 1138h-873l39 169h1114l-40 -172l-1163 -1148h930zM1260 2049l-355 -374h-156l254 374h257z" />
    <glyph glyph-name="zacute" unicode="&#x17a;" horiz-adv-x="1076" 
d="M871 0h-902l32 139l830 828h-639l35 150h875l-31 -134l-834 -833h669zM1017 1676l-355 -374h-156l254 374h257z" />
    <glyph glyph-name="Zdot" unicode="&#x17b;" horiz-adv-x="1403" 
d="M1164 0h-1162l41 182l1153 1138h-873l39 169h1114l-40 -172l-1163 -1148h930zM1002 1677h-214l45 195h214z" />
    <glyph glyph-name="zdot" unicode="&#x17c;" horiz-adv-x="1076" 
d="M871 0h-902l32 139l830 828h-639l35 150h875l-31 -134l-834 -833h669zM785 1304h-214l45 195h214z" />
    <glyph glyph-name="Zcaron" unicode="&#x17d;" horiz-adv-x="1403" 
d="M1164 0h-1162l41 182l1153 1138h-873l39 169h1114l-40 -172l-1163 -1148h930zM1340 2049l-315 -379h-229l-141 379h161l125 -256l242 256h157z" />
    <glyph glyph-name="zcaron" unicode="&#x17e;" horiz-adv-x="1076" 
d="M871 0h-902l32 139l830 828h-639l35 150h875l-31 -134l-834 -833h669zM1096 1676l-315 -379h-229l-141 379h161l125 -256l242 256h157z" />
    <glyph glyph-name="longs" unicode="&#x17f;" horiz-adv-x="615" 
d="M958 1381h-10q-29 10 -77 19t-88 9q-120 0 -180 -61t-91 -195l-261 -1153h-190l261 1153q43 195 159 304t308 109q63 0 115 -6t93 -14z" />
    <glyph glyph-name="uni018F" unicode="&#x18f;" horiz-adv-x="1549" 
d="M1500 972q0 -392 -230 -686q-248 -317 -626 -317q-253 0 -385 143q-125 137 -125 388q0 154 55 392h1102q4 38 4 76q0 164 -90 265q-97 111 -273 111q-264 0 -498 -140h-17l51 220q234 92 501 92q252 0 394 -150q137 -146 137 -394zM1259 713h-905q-21 -102 -21 -200
q0 -373 332 -373q229 0 393 179q139 153 201 394z" />
    <glyph glyph-name="florin" unicode="&#x192;" horiz-adv-x="1302" 
d="M743 749l-114 -538q-44 -209 -166 -310.5t-305 -101.5q-52 0 -105 5t-101 15l39 166h10q34 -11 74 -19.5t89 -8.5q120 0 184.5 63t94.5 210l110 519h-240l32 132h234l48 226q40 193 158.5 302.5t312.5 109.5q63 0 114 -6t92 -14l-39 -166h-10q-29 10 -77 19t-86 9
q-120 0 -181.5 -58t-92.5 -195l-50 -227h344l-32 -132h-337z" />
    <glyph glyph-name="Ohorn" unicode="&#x1a0;" horiz-adv-x="1652" 
d="M1563 962q0 -194 -58.5 -374t-169.5 -317q-114 -141 -274 -221.5t-361 -80.5q-266 0 -416 145.5t-150 413.5q0 204 60 381t173 316q110 134 272.5 214.5t356.5 80.5q191 0 325 -76.5t196 -221.5q103 17 146.5 77t43.5 221h154q0 -216 -82 -308.5t-227 -114.5
q5 -27 8 -63.5t3 -71.5zM1184 370q84 114 127 254.5t43 309.5q0 204 -102.5 313.5t-286.5 109.5q-143 0 -258 -65.5t-198 -177.5q-80 -110 -123 -255.5t-43 -299.5q0 -206 102.5 -316.5t287.5 -110.5q141 0 256.5 65t194.5 173z" />
    <glyph glyph-name="ohorn" unicode="&#x1a1;" horiz-adv-x="1243" 
d="M1154 722q0 -150 -46 -288t-130 -240q-87 -106 -201 -165.5t-266 -59.5q-199 0 -310.5 113.5t-111.5 313.5q0 150 45.5 286t131.5 242q83 102 203.5 163t263.5 61q69 0 129 -15t108 -42q130 15 183.5 87.5t53.5 233.5h154q0 -216 -81.5 -307.5t-202.5 -109.5
q38 -52 57.5 -120.5t19.5 -152.5zM848 300q54 80 82.5 185t28.5 222q0 140 -67 212t-189 72q-97 0 -174 -46.5t-133 -127.5q-54 -79 -83 -185t-29 -220q0 -138 67 -212t190 -74q96 0 174 46t133 128z" />
    <glyph glyph-name="Uhorn" unicode="&#x1af;" horiz-adv-x="1549" 
d="M1330 598q-39 -167 -99 -284.5t-159 -198.5q-92 -74 -199.5 -110t-252.5 -36q-235 0 -350 106t-115 293q0 63 8.5 117t21.5 113l206 891h200l-208 -901q-12 -47 -19.5 -105.5t-7.5 -91.5q0 -126 75 -192.5t224 -66.5q107 0 188 33t141 99q54 62 86.5 137.5t56.5 181.5
l209 906h121q151 0 201.5 67t50.5 228h154q0 -216 -88 -314t-270 -116zM1499 0z" />
    <glyph glyph-name="uhorn" unicode="&#x1b0;" horiz-adv-x="1351" 
d="M1208 982l-226 -982h-188l29 124q-107 -73 -199.5 -114t-195.5 -41q-144 0 -225 72.5t-81 211.5q0 34 4.5 66t12.5 73l167 725h188l-147 -636q-9 -39 -17 -89t-8 -79q0 -86 43.5 -129t148.5 -43q74 0 169.5 43t176.5 99l192 834h108q151 0 201.5 67t50.5 228h154
q0 -216 -88 -314t-270 -116zM1296 0z" />
    <glyph glyph-name="Aringacute" unicode="&#x1fa;" horiz-adv-x="1398" 
d="M1262 0h-203l-50 419h-640l-244 -419h-211l820 1377q-33 27 -56 65t-23 89q0 117 96 201t229 84q106 0 176 -61.5t70 -156.5q0 -73 -40.5 -133.5t-105.5 -97.5zM987 581l-92 743l-431 -743h523zM1072 1583q0 45 -31 77t-82 32q-65 0 -107 -44.5t-42 -103.5
q0 -49 31.5 -81t81.5 -32q62 0 105.5 44.5t43.5 107.5zM1327 2048l-301 -205h-154l202 205h253z" />
    <glyph glyph-name="aringacute" unicode="&#x1fb;" horiz-adv-x="1230" 
d="M874 590q-156 -6 -272.5 -21.5t-198.5 -48.5q-81 -33 -123 -90.5t-42 -145.5q0 -72 49.5 -110.5t152.5 -38.5q101 0 202.5 48.5t158.5 91.5zM765 119q-27 -16 -73.5 -45.5t-94.5 -50.5q-51 -23 -114 -38.5t-145 -15.5q-133 0 -216.5 77.5t-83.5 202.5q0 133 58.5 224.5
t173.5 149.5q113 57 273.5 82.5t363.5 31.5q6 28 10 48.5t4 42.5q0 46 -18.5 77t-54.5 50q-31 16 -79 23.5t-105 7.5q-84 0 -188.5 -26t-182.5 -56h-10l37 187q35 9 87.5 20t121.5 21q-20 24 -35 60.5t-15 69.5q0 118 97.5 199t221.5 81q105 0 174.5 -60t69.5 -156
q0 -64 -30.5 -117.5t-84.5 -93.5q87 -28 137.5 -87t50.5 -155q0 -27 -4.5 -57.5t-10.5 -57.5l-175 -758h-188zM896 1308q0 48 -32.5 79t-85.5 31q-62 0 -107.5 -44.5t-45.5 -106.5q0 -48 34 -81t85 -33q63 0 107.5 46.5t44.5 108.5zM1161 1843l-311 -274h-154l212 274h253z
" />
    <glyph glyph-name="AEacute" unicode="&#x1fc;" horiz-adv-x="2026" 
d="M1783 0h-945l129 559h-515l-351 -559h-216l957 1489h1284l-38 -169h-748l-98 -420h748l-38 -168h-748l-131 -563h748zM1003 718l142 613h-200l-395 -613h453zM1792 2049l-355 -374h-156l254 374h257z" />
    <glyph glyph-name="aeacute" unicode="&#x1fd;" horiz-adv-x="1955" 
d="M1889 789q0 -31 -7 -92t-25 -135h-821q-6 -30 -10 -67t-4 -62q0 -151 87.5 -226.5t240.5 -75.5q110 0 223 43.5t194 98.5h12l-40 -205q-91 -35 -197 -64.5t-222 -29.5q-168 0 -275.5 53t-163.5 154q-24 -18 -78.5 -59t-108.5 -68q-72 -37 -156 -60t-186 -23
q-132 0 -216.5 75t-84.5 198q0 145 62 233.5t176 138.5q106 47 266.5 65.5t336.5 21.5q8 43 13 68t5 54q0 79 -61 120.5t-201 41.5q-83 0 -186 -27t-178 -57h-13l38 190q57 15 164 34t208 19q165 0 258 -46.5t132 -137.5q85 82 196.5 134t236.5 52q189 0 287 -94t98 -265z
M1706 765q0 121 -61 178t-181 57q-137 0 -241.5 -81t-154.5 -219h634q2 15 3 31t1 34zM854 561q-99 -3 -215 -11t-195 -32q-86 -25 -139.5 -80t-53.5 -151q0 -74 49.5 -112t153.5 -38q98 0 202.5 46.5t187.5 114.5q-4 24 -5.5 50t-1.5 50q0 39 4 77t13 86zM1526 1676
l-355 -374h-156l254 374h257z" />
    <glyph glyph-name="Oslashacute" unicode="&#x1fe;" horiz-adv-x="1612" 
d="M1283 1221l-797 -1019q47 -35 108.5 -53.5t138.5 -18.5q134 0 252 62.5t201 176.5q84 114 127.5 255t43.5 310q0 88 -18.5 161t-55.5 126zM413 273l797 1015q-48 36 -111 53.5t-134 17.5q-143 0 -258.5 -65t-199.5 -179q-80 -110 -123.5 -254.5t-43.5 -301.5
q0 -86 19 -159.5t54 -126.5zM286 116q-73 72 -113 176t-40 236q0 198 60.5 378.5t173.5 318.5q109 134 272 214.5t357 80.5q98 0 181.5 -21t149.5 -62l137 174h132l-186 -236q76 -74 115 -175t39 -238q0 -194 -58.5 -374t-169.5 -317q-114 -141 -274 -221.5t-362 -80.5
q-96 0 -181 21.5t-151 61.5l-156 -198h-132zM1351 2049l-355 -374h-156l254 374h257z" />
    <glyph glyph-name="oslashacute" unicode="&#x1ff;" horiz-adv-x="1243" 
d="M925 880l-550 -705q30 -24 72 -38t94 -14q96 0 174.5 46.5t133.5 128.5q56 83 84.5 185.5t28.5 223.5q0 51 -9.5 95.5t-27.5 77.5zM318 239l550 705q-32 25 -74 37.5t-91 12.5q-101 0 -176 -47t-132 -129q-53 -76 -83.5 -185.5t-30.5 -220.5q0 -54 9 -95.5t28 -77.5z
M197 89q-52 55 -80.5 133.5t-28.5 173.5q0 149 45.5 285.5t131.5 242.5q83 102 204 163t264 61q71 0 133 -17t111 -48l124 158h111l-167 -213q53 -55 81.5 -130t28.5 -176q0 -148 -45.5 -286t-130.5 -242q-87 -106 -201.5 -165.5t-266.5 -59.5q-72 0 -134.5 17t-112.5 48
l-143 -182h-110zM1147 1676l-355 -374h-156l254 374h257z" />
    <glyph glyph-name="Scommaaccent" unicode="&#x218;" horiz-adv-x="1400" 
d="M585 -27q-145 0 -276 30.5t-257 93.5l48 227h14q96 -91 235.5 -139.5t269.5 -48.5q213 0 326.5 84.5t113.5 215.5q0 69 -40.5 115t-118.5 68q-65 18 -154.5 34.5t-170.5 35.5q-157 35 -243 120t-86 211q0 213 180.5 354.5t466.5 141.5q156 0 283.5 -32.5t219.5 -76.5
l-45 -213h-14q-71 65 -202.5 112t-276.5 47q-182 0 -290.5 -80t-108.5 -203q0 -66 39 -116t139 -75q64 -15 170 -36.5t178 -40.5q142 -39 215.5 -116t73.5 -194q0 -98 -48 -195t-134 -166q-92 -74 -215.5 -116t-291.5 -42zM724 -115l-175 -308h-146l100 308h221z" />
    <glyph glyph-name="scommaaccent" unicode="&#x219;" horiz-adv-x="1067" 
d="M405 -27q-125 0 -223.5 31t-164.5 67l42 201h10q21 -18 54.5 -42.5t85.5 -48.5q47 -23 107.5 -39.5t129.5 -16.5q141 0 221 52t80 153q0 53 -41 81.5t-118 46.5q-39 9 -93.5 20t-110.5 26q-117 33 -173 95.5t-56 152.5q0 78 34 146t101 125q64 54 163 87.5t220 33.5
q100 0 199.5 -25t162.5 -62l-40 -192h-10q-16 13 -48.5 35t-82.5 45q-43 19 -100.5 33t-119.5 14q-125 0 -203 -52.5t-78 -143.5q0 -50 38 -83.5t116 -52.5q49 -12 102.5 -22.5t103.5 -22.5q116 -29 174.5 -90t58.5 -153q0 -77 -36.5 -150.5t-105.5 -127.5q-71 -57 -172 -89
t-227 -32zM528 -115l-175 -308h-146l100 308h221z" />
    <glyph glyph-name="Tcommaaccent" unicode="&#x21a;" horiz-adv-x="1262" 
d="M1438 1320h-531l-305 -1320h-200l305 1320h-531l38 169h1262zM599 -115l-175 -308h-146l100 308h221z" />
    <glyph glyph-name="tcommaaccent" unicode="&#x21b;" horiz-adv-x="807" 
d="M894 1117l-34 -152h-388l-120 -515q-10 -39 -18 -89.5t-8 -80.5q0 -73 37 -108.5t137 -35.5q41 0 97.5 14t76.5 22h10l-35 -162q-56 -14 -119.5 -23t-112.5 -9q-138 0 -213.5 60.5t-75.5 191.5q0 32 4.5 63.5t12.5 71.5l139 600h-127l34 152h127l75 321h188l-75 -321h388
zM430 -115l-175 -308h-146l100 308h221z" />
    <glyph glyph-name="uni0259" unicode="&#x259;" horiz-adv-x="1220" 
d="M1132 720q0 -300 -185 -517q-194 -229 -489 -229q-182 0 -284 88q-108 94 -108 272q0 76 32 227q2 9 4 19h823q11 53 11 109q0 149 -92 228q-87 74 -238 74q-217 0 -422 -140h-11l41 203q62 23 192 63q128 31 230 31q224 0 353 -100q143 -111 143 -328zM898 442h-638
q-9 -52 -9 -93q0 -227 246 -227q145 0 254 89t147 231z" />
    <glyph glyph-name="circumflex" unicode="&#x2c6;" horiz-adv-x="1302" 
d="M1114 1297h-152l-130 260l-241 -260h-162l311 379h228z" />
    <glyph glyph-name="caron" unicode="&#x2c7;" horiz-adv-x="1302" 
d="M1190 1676l-315 -379h-229l-141 379h161l125 -256l242 256h157z" />
    <glyph glyph-name="macron" unicode="&#x2c9;" horiz-adv-x="1302" 
d="M1192 1338h-850l35 151h850z" />
    <glyph glyph-name="breve" unicode="&#x2d8;" horiz-adv-x="1302" 
d="M1205 1676q-47 -179 -167 -280.5t-281 -101.5q-146 0 -227 80.5t-81 230.5q0 19 1.5 34.5t3.5 36.5h166q-2 -18 -2.5 -33.5t-0.5 -26.5q0 -100 42 -146t122 -46q85 0 153 56.5t106 195.5h165z" />
    <glyph glyph-name="dotaccent" unicode="&#x2d9;" horiz-adv-x="1302" 
d="M871 1304h-214l45 195h214z" />
    <glyph glyph-name="ring" unicode="&#x2da;" horiz-adv-x="1302" 
d="M729 1113q-129 0 -213.5 81.5t-84.5 203.5q0 159 125 277t287 118q130 0 214.5 -79.5t84.5 -197.5q0 -160 -122.5 -281.5t-290.5 -121.5zM995 1492q0 72 -47.5 121.5t-125.5 49.5q-97 0 -170 -72.5t-74 -170.5q0 -74 47.5 -124.5t124.5 -50.5q97 0 171 75t74 172z" />
    <glyph glyph-name="ogonek" unicode="&#x2db;" horiz-adv-x="1302" 
d="M854 -391q-56 -14 -94.5 -20t-80.5 -6q-121 0 -189 59.5t-68 167.5q0 59 16.5 109t34.5 91h155q-14 -32 -26.5 -85.5t-12.5 -80.5q0 -59 36 -88.5t110 -29.5q32 0 73.5 12t66.5 23h8z" />
    <glyph glyph-name="tilde" unicode="&#x2dc;" horiz-adv-x="1302" 
d="M1196 1619q-39 -156 -110.5 -231t-177.5 -75q-55 0 -94 18t-73 58t-63.5 63t-65.5 23q-46 0 -76.5 -42t-49.5 -124h-125q35 152 113 228.5t174 76.5q50 0 91.5 -19.5t73.5 -55.5q35 -40 65.5 -61t66.5 -21q45 0 78 43.5t50 118.5h123z" />
    <glyph glyph-name="hungarumlaut" unicode="&#x2dd;" horiz-adv-x="1302" 
d="M1289 1676l-330 -374h-139l241 374h228zM885 1676l-330 -374h-139l241 374h228z" />
    <glyph glyph-name="gravecomb" unicode="&#x300;" 
d="M-393 1302h-145l-197 374h236z" />
    <glyph glyph-name="acutecomb" unicode="&#x301;" 
d="M-153 1676l-355 -374h-156l254 374h257z" />
    <glyph glyph-name="tildecomb" unicode="&#x303;" 
d="M-4 1619q-39 -156 -110.5 -231t-177.5 -75q-55 0 -94 18t-73 58t-63.5 63t-65.5 23q-46 0 -76.5 -42t-49.5 -124h-125q35 152 113 228.5t174 76.5q50 0 91.5 -19.5t73.5 -55.5q35 -40 65.5 -61t66.5 -21q45 0 78 43.5t50 118.5h123z" />
    <glyph glyph-name="hookabovecomb" unicode="&#x309;" 
d="M-193 1554q0 -69 -44 -115.5t-130 -73.5l-16 -68h-110l28 121q65 16 91 41.5t26 59.5q0 22 -16 37t-44 15q-27 0 -48.5 -5t-44.5 -13h-3l24 105q20 6 53.5 12t71.5 6q80 0 121 -36.5t41 -85.5z" />
    <glyph glyph-name="dotbelowcomb" unicode="&#x323;" 
d="M-641 -382h-214l45 195h214z" />
    <glyph glyph-name="tonos" unicode="&#x384;" horiz-adv-x="1302" 
d="M908 1676l-143 -384h-147l45 384h245z" />
    <glyph glyph-name="dieresistonos" unicode="&#x385;" horiz-adv-x="1302" 
d="M1026 1676l-142 -384h-130l44 384h228zM1223 1304h-193l45 195h193zM618 1304h-193l45 195h193z" />
    <glyph glyph-name="Alphatonos" unicode="&#x386;" horiz-adv-x="1400" 
d="M1263 0h-201l-50 419h-642l-244 -419h-209l886 1489h262zM990 581l-93 735l-432 -735h525zM476 1489l-143 -384h-147l45 384h245z" />
    <glyph glyph-name="anoteleia" unicode="&#x387;" horiz-adv-x="930" 
d="M649 832h-241l66 285h241z" />
    <glyph glyph-name="Epsilontonos" unicode="&#x388;" horiz-adv-x="1538" 
d="M1638 1489l-39 -169h-783l-96 -420h783l-39 -168h-783l-130 -563h783l-39 -169h-981l343 1489h981zM457 1489l-143 -384h-147l45 384h245z" />
    <glyph glyph-name="Etatonos" unicode="&#x389;" horiz-adv-x="1782" 
d="M1796 1489l-343 -1489h-198l169 732h-743l-169 -732h-198l343 1489h198l-135 -589h743l135 589h198zM457 1489l-143 -384h-147l45 384h245z" />
    <glyph glyph-name="Iotatonos" unicode="&#x38a;" horiz-adv-x="1105" 
d="M840 0h-590l33 145h195l278 1199h-195l33 145h590l-33 -145h-195l-278 -1199h195zM458 1489l-143 -384h-147l45 384h245z" />
    <glyph glyph-name="Omicrontonos" unicode="&#x38c;" horiz-adv-x="1804" 
d="M1754 962q0 -194 -58.5 -374t-169.5 -317q-114 -141 -274 -221.5t-361 -80.5q-266 0 -416 145.5t-150 413.5q0 204 60 381t173 316q110 134 272.5 214.5t356.5 80.5q265 0 416 -144.5t151 -413.5zM1375 370q84 114 127 254.5t43 309.5q0 204 -102.5 313.5t-286.5 109.5
q-143 0 -258 -65.5t-198 -177.5q-80 -110 -123 -255.5t-43 -299.5q0 -206 102.5 -316.5t287.5 -110.5q141 0 256.5 65t194.5 173zM459 1489l-143 -384h-147l45 384h245z" />
    <glyph glyph-name="Upsilontonos" unicode="&#x38e;" horiz-adv-x="1543" 
d="M1746 1489l-713 -836l-151 -653h-200l146 632l-332 857h212l258 -669l563 669h217zM455 1489l-143 -384h-147l45 384h245z" />
    <glyph glyph-name="Omegatonos" unicode="&#x38f;" horiz-adv-x="1859" 
d="M1635 0h-604l87 382q82 39 167.5 94.5t146.5 126.5q65 76 103.5 170.5t38.5 229.5q0 163 -107 258t-292 95q-254 0 -412.5 -167.5t-158.5 -413.5q0 -82 20.5 -141.5t57.5 -105.5q37 -45 89 -82.5t93 -63.5l-87 -382h-604l38 167h436l35 138q-137 79 -211.5 200.5
t-74.5 269.5q0 311 232 528t571 217q274 0 429.5 -137t155.5 -359q0 -244 -146 -436t-368 -290l-33 -131h436zM460 1489l-143 -384h-147l45 384h245z" />
    <glyph glyph-name="iotadieresistonos" unicode="&#x390;" horiz-adv-x="562" 
d="M505 1117l-258 -1117h-190l258 1117h190zM831 1499l-45 -195h-172l45 195h172zM333 1499l-45 -195h-172l45 195h172zM637 1676l-148 -384h-84l36 384h196z" />
    <glyph glyph-name="Alpha" unicode="&#x391;" horiz-adv-x="1398" 
d="M1261 0h-201l-50 419h-642l-244 -419h-209l886 1489h262zM988 581l-93 735l-432 -735h525z" />
    <glyph glyph-name="Beta" unicode="&#x392;" horiz-adv-x="1404" 
d="M1081 120q-97 -65 -203 -92.5t-261 -27.5h-547l343 1489h428q163 0 242.5 -11t145.5 -51q55 -34 82.5 -86.5t27.5 -116.5q0 -129 -73 -228t-202 -153v-8q120 -27 183.5 -101t63.5 -190q0 -127 -63.5 -240.5t-166.5 -183.5zM1124 1169q0 42 -14 69.5t-40 45.5
q-42 28 -105 35.5t-163 7.5h-226l-102 -442h260q86 0 150 12.5t112 39.5q62 36 95 102.5t33 129.5zM1102 530q0 56 -19 90.5t-68 64.5q-40 25 -102.5 33t-173.5 8h-301l-131 -564h273q133 0 216.5 14.5t144.5 51.5q79 47 120 128.5t41 173.5z" />
    <glyph glyph-name="Gamma" unicode="&#x393;" horiz-adv-x="1160" 
d="M1339 1320h-764l-305 -1320h-200l344 1489h964z" />
    <glyph glyph-name="Delta" unicode="&#x394;" horiz-adv-x="1487" 
d="M1329 0h-1388l906 1489h264zM1110 161l-168 1154l-700 -1154h868z" />
    <glyph glyph-name="Epsilon" unicode="&#x395;" horiz-adv-x="1295" 
d="M1395 1489l-39 -169h-783l-96 -420h783l-39 -168h-783l-130 -563h783l-39 -169h-981l343 1489h981z" />
    <glyph glyph-name="Zeta" unicode="&#x396;" horiz-adv-x="1403" 
d="M1164 0h-1162l41 182l1153 1138h-873l39 169h1114l-40 -172l-1163 -1148h930z" />
    <glyph glyph-name="Eta" unicode="&#x397;" horiz-adv-x="1539" 
d="M1553 1489l-343 -1489h-198l169 732h-743l-169 -732h-198l343 1489h198l-135 -589h743l135 589h198z" />
    <glyph glyph-name="Theta" unicode="&#x398;" horiz-adv-x="1612" 
d="M1563 962q0 -194 -58.5 -374t-169.5 -317q-114 -141 -274 -221.5t-361 -80.5q-266 0 -416 145.5t-150 413.5q0 204 60 381t173 316q110 134 272.5 214.5t356.5 80.5q265 0 416 -144.5t151 -413.5zM1184 370q84 114 127 254.5t43 309.5q0 204 -102.5 313.5t-286.5 109.5
q-143 0 -258 -65.5t-198 -177.5q-80 -110 -123 -255.5t-43 -299.5q0 -206 102.5 -316.5t287.5 -110.5q141 0 256.5 65t194.5 173zM1153 718h-625l40 168h625z" />
    <glyph glyph-name="Iota" unicode="&#x399;" horiz-adv-x="862" 
d="M597 0h-590l33 145h195l278 1199h-195l33 145h590l-33 -145h-195l-278 -1199h195z" />
    <glyph glyph-name="Kappa" unicode="&#x39a;" horiz-adv-x="1419" 
d="M1285 0h-234l-459 665l-204 -173l-113 -492h-200l344 1489h200l-180 -773l875 773h252l-817 -713z" />
    <glyph glyph-name="Lambda" unicode="&#x39b;" horiz-adv-x="1404" 
d="M1262 0h-206l-165 1305l-763 -1305h-214l886 1489h264z" />
    <glyph glyph-name="Mu" unicode="&#x39c;" horiz-adv-x="1726" 
d="M1398 0h-200l294 1265l-605 -855h-118l-210 894l-302 -1304h-187l344 1489h272l201 -829l580 829h275z" />
    <glyph glyph-name="Nu" unicode="&#x39d;" horiz-adv-x="1532" 
d="M1208 0h-236l-407 1332l-308 -1332h-187l344 1489h298l372 -1216l281 1216h187z" />
    <glyph glyph-name="Xi" unicode="&#x39e;" horiz-adv-x="1329" 
d="M1392 1320h-1101l38 169h1101zM1204 732h-997l38 168h997zM1086 0h-1101l39 169h1101z" />
    <glyph glyph-name="Omicron" unicode="&#x39f;" horiz-adv-x="1612" 
d="M1563 962q0 -194 -58.5 -374t-169.5 -317q-114 -141 -274 -221.5t-361 -80.5q-266 0 -416 145.5t-150 413.5q0 204 60 381t173 316q110 134 272.5 214.5t356.5 80.5q265 0 416 -144.5t151 -413.5zM1184 370q84 114 127 254.5t43 309.5q0 204 -102.5 313.5t-286.5 109.5
q-143 0 -258 -65.5t-198 -177.5q-80 -110 -123 -255.5t-43 -299.5q0 -206 102.5 -316.5t287.5 -110.5q141 0 256.5 65t194.5 173z" />
    <glyph glyph-name="Pi" unicode="&#x3a0;" horiz-adv-x="1539" 
d="M1554 1489l-343 -1489h-200l304 1320h-741l-304 -1320h-200l343 1489h1141z" />
    <glyph glyph-name="Rho" unicode="&#x3a1;" horiz-adv-x="1235" 
d="M1095 709q-92 -76 -205.5 -113.5t-273.5 -37.5h-217l-129 -558h-200l344 1489h392q136 0 225 -24t146 -69q59 -45 90 -109.5t31 -155.5q0 -122 -53 -231.5t-150 -190.5zM1086 1097q0 51 -17 95t-53 72q-43 33 -101.5 47.5t-152.5 14.5h-185l-141 -607h178q120 0 199.5 22
t137.5 70q68 57 101.5 128t33.5 158z" />
    <glyph glyph-name="Sigma" unicode="&#x3a3;" horiz-adv-x="1377" 
d="M1151 0h-1162l40 177l767 612l-493 528l39 172h1096l-38 -169h-852l497 -524l-7 -29l-756 -598h907z" />
    <glyph glyph-name="Tau" unicode="&#x3a4;" horiz-adv-x="1262" 
d="M1438 1320h-531l-305 -1320h-200l305 1320h-531l38 169h1262z" />
    <glyph glyph-name="Upsilon" unicode="&#x3a5;" horiz-adv-x="1260" 
d="M1463 1489l-713 -836l-151 -653h-200l146 632l-332 857h212l258 -669l563 669h217z" />
    <glyph glyph-name="Phi" unicode="&#x3a6;" horiz-adv-x="1669" 
d="M1631 881q0 -170 -71 -314t-189 -241q-100 -82 -242.5 -127.5t-291.5 -48.5l-39 -166h-196l39 166q-115 5 -209.5 40t-162.5 95q-69 60 -107.5 144.5t-38.5 189.5q0 170 70.5 313t189.5 242q93 78 237 125t298 51l36 155h196l-36 -155q228 -9 372.5 -135.5t144.5 -333.5z
M1420 857q0 64 -20 126.5t-60 109.5q-43 50 -107.5 78t-152.5 31l-210 -904q106 5 197 36t151 79q98 78 150 192.5t52 251.5zM674 298l210 904q-96 -3 -188 -32.5t-160 -82.5q-94 -73 -148 -193.5t-54 -250.5q0 -66 19.5 -127.5t60.5 -108.5q39 -46 106 -76.5t154 -32.5z
" />
    <glyph glyph-name="Chi" unicode="&#x3a7;" horiz-adv-x="1403" 
d="M640 749l-344 740h216l270 -595l547 595h223l-695 -742l348 -747h-217l-273 602l-555 -602h-222z" />
    <glyph glyph-name="Psi" unicode="&#x3a8;" horiz-adv-x="1783" 
d="M1685 910q-36 -156 -100.5 -264.5t-159.5 -176.5q-92 -66 -211 -101t-279 -46l-74 -322h-199l74 322q-123 9 -214 35.5t-154 74.5q-66 48 -100 121t-34 171q0 45 6 87t19 103l133 575h200l-138 -598q-7 -29 -12.5 -68.5t-5.5 -62.5q0 -138 86.5 -202.5t250.5 -73.5
l233 1005h199l-233 -1005q103 9 183.5 33t146.5 74q64 47 109 119.5t69 176.5l139 602h200z" />
    <glyph glyph-name="Omega" unicode="&#x3a9;" horiz-adv-x="1676" 
d="M1452 0h-604l87 382q82 39 167.5 94.5t146.5 126.5q65 76 103.5 170.5t38.5 229.5q0 163 -107 258t-292 95q-254 0 -412.5 -167.5t-158.5 -413.5q0 -82 20.5 -141.5t57.5 -105.5q37 -45 89 -82.5t93 -63.5l-87 -382h-604l38 167h436l35 138q-137 79 -211.5 200.5
t-74.5 269.5q0 311 232 528t571 217q274 0 429.5 -137t155.5 -359q0 -244 -146 -436t-368 -290l-33 -131h436z" />
    <glyph glyph-name="Iotadieresis" unicode="&#x3aa;" horiz-adv-x="862" 
d="M597 0h-590l33 145h195l278 1199h-195l33 145h590l-33 -145h-195l-278 -1199h195zM1001 1677h-201l45 195h201zM586 1677h-201l45 195h201z" />
    <glyph glyph-name="Upsilondieresis" unicode="&#x3ab;" horiz-adv-x="1260" 
d="M1463 1489l-713 -836l-151 -653h-200l146 632l-332 857h212l258 -669l563 669h217zM1158 1677h-201l45 195h201zM743 1677h-201l45 195h201z" />
    <glyph glyph-name="alphatonos" unicode="&#x3ac;" horiz-adv-x="1276" 
d="M1220 1117l-258 -1117h-188l27 117q-127 -87 -204.5 -117.5t-168.5 -30.5q-158 0 -250.5 100t-92.5 291q0 161 50 304.5t136 251.5q85 107 201 169.5t246 62.5q89 0 164 -19t140 -57l10 45h188zM986 916q-67 35 -131.5 51.5t-137.5 16.5q-104 0 -185.5 -50t-139.5 -137
q-53 -79 -81.5 -190t-28.5 -215q0 -122 52.5 -186.5t170.5 -64.5q84 0 171.5 42t161.5 92zM1002 1676l-143 -384h-147l45 384h245z" />
    <glyph glyph-name="epsilontonos" unicode="&#x3ad;" horiz-adv-x="1050" 
d="M907 64q-117 -48 -222.5 -69t-217.5 -21q-73 0 -148.5 14.5t-133.5 47.5q-60 33 -97 85t-37 129q0 121 74 207t223 131v7q-75 22 -118 73t-43 124q0 87 45.5 158.5t142.5 120.5q73 38 168 55.5t177 17.5q102 0 188.5 -19t157.5 -45l-47 -193h-13q-57 49 -146 75t-185 26
q-54 0 -98.5 -6.5t-95.5 -31.5q-43 -21 -71 -59.5t-28 -95.5q0 -50 27 -77.5t67 -39.5q39 -11 84 -13.5t101 -2.5h117l-39 -160h-158q-66 0 -121.5 -7.5t-106.5 -30.5q-47 -23 -76 -65t-29 -110q0 -45 22.5 -75.5t58.5 -48.5q32 -17 77.5 -26t96.5 -9q107 0 232 40t208 102
h13zM929 1676l-143 -384h-147l45 384h245z" />
    <glyph glyph-name="etatonos" unicode="&#x3ae;" horiz-adv-x="1296" 
d="M1175 862q0 -24 -4.5 -65t-12.5 -72l-264 -1137h-188l243 1048q12 53 18.5 92.5t6.5 78.5q0 84 -41.5 126.5t-149.5 42.5q-76 0 -167.5 -42t-178.5 -100l-193 -834h-188l258 1117h188l-29 -124q107 75 200.5 115t192.5 40q146 0 227.5 -73.5t81.5 -212.5zM1036 1676
l-143 -384h-147l45 384h245z" />
    <glyph glyph-name="iotatonos" unicode="&#x3af;" horiz-adv-x="562" 
d="M505 1117l-258 -1117h-190l258 1117h190zM662 1676l-143 -384h-147l45 384h245z" />
    <glyph glyph-name="upsilondieresistonos" unicode="&#x3b0;" horiz-adv-x="1291" 
d="M1079 407q-51 -218 -187.5 -327.5t-366.5 -109.5q-188 0 -292 82.5t-104 238.5q0 32 3 62t11 67l161 697h190l-146 -632q-9 -39 -15 -86t-6 -80q0 -95 49 -144.5t181 -49.5q90 0 149 23.5t96 69.5q37 45 60 106.5t43 151.5l148 641h190zM1003 1676l-142 -384h-130l44 384
h228zM1200 1304h-193l45 195h193zM595 1304h-193l45 195h193z" />
    <glyph glyph-name="alpha" unicode="&#x3b1;" horiz-adv-x="1276" 
d="M1220 1117l-258 -1117h-188l27 117q-127 -87 -204.5 -117.5t-168.5 -30.5q-158 0 -250.5 100t-92.5 291q0 161 50 304.5t136 251.5q85 107 201 169.5t246 62.5q89 0 164 -19t140 -57l10 45h188zM986 916q-67 35 -131.5 51.5t-137.5 16.5q-104 0 -185.5 -50t-139.5 -137
q-53 -79 -81.5 -190t-28.5 -215q0 -122 52.5 -186.5t170.5 -64.5q84 0 171.5 42t161.5 92z" />
    <glyph glyph-name="beta" unicode="&#x3b2;" horiz-adv-x="1270" 
d="M581 -22q-79 0 -168 21.5t-153 64.5l-110 -476h-190l342 1490q51 221 199.5 349.5t376.5 128.5q172 0 267 -84.5t95 -219.5q0 -146 -98.5 -262.5t-257.5 -159.5l-4 -17q131 -24 201.5 -99.5t70.5 -192.5q0 -232 -169.5 -387.5t-401.5 -155.5zM955 510q0 69 -27.5 113.5
t-75.5 71.5q-47 25 -108 34.5t-125 9.5h-47l35 154h36q78 0 154 19.5t127 58.5q55 41 87 101.5t32 150.5q0 87 -57 134t-153 47q-77 0 -131.5 -26.5t-98.5 -72.5q-41 -44 -68 -104t-45 -132l-196 -858q58 -37 136 -54.5t150 -17.5q178 0 276.5 107.5t98.5 263.5z" />
    <glyph glyph-name="gamma" unicode="&#x3b3;" horiz-adv-x="1210" 
d="M1270 1117l-702 -1058l-106 -471h-191l109 471l-206 1058h194l156 -838l538 838h208z" />
    <glyph glyph-name="delta" unicode="&#x3b4;" horiz-adv-x="1245" 
d="M1157 671q0 -304 -183.5 -503t-450.5 -199q-207 0 -321 113t-114 314q0 165 53 289.5t141 215.5q87 89 199 141.5t227 70.5q-88 85 -168.5 150.5t-153.5 123.5l48 169h810l-39 -150h-581v-5q61 -46 161.5 -132t174.5 -166q104 -112 150.5 -215t46.5 -217zM960 652
q0 118 -44 208t-104 145q-68 -8 -162 -43t-172 -99q-89 -72 -141 -183.5t-52 -255.5q0 -146 69 -222.5t201 -76.5q174 0 289.5 149t115.5 378z" />
    <glyph glyph-name="epsilon" unicode="&#x3b5;" horiz-adv-x="1050" 
d="M907 64q-117 -48 -222.5 -69t-217.5 -21q-73 0 -148.5 14.5t-133.5 47.5q-60 33 -97 85t-37 129q0 121 74 207t223 131v7q-75 22 -118 73t-43 124q0 87 45.5 158.5t142.5 120.5q73 38 168 55.5t177 17.5q102 0 188.5 -19t157.5 -45l-47 -193h-13q-57 49 -146 75t-185 26
q-54 0 -98.5 -6.5t-95.5 -31.5q-43 -21 -71 -59.5t-28 -95.5q0 -50 27 -77.5t67 -39.5q39 -11 84 -13.5t101 -2.5h117l-39 -160h-158q-66 0 -121.5 -7.5t-106.5 -30.5q-47 -23 -76 -65t-29 -110q0 -45 22.5 -75.5t58.5 -48.5q32 -17 77.5 -26t96.5 -9q107 0 232 40t208 102
h13z" />
    <glyph glyph-name="zeta" unicode="&#x3b6;" horiz-adv-x="937" 
d="M581 2h-141q-187 0 -281.5 85.5t-94.5 243.5q0 168 68.5 314.5t181.5 281.5q109 130 250 247.5t287 222.5l2 9h-459l34 150h750l-30 -134q-146 -84 -302 -201t-284 -253q-127 -133 -211 -290t-84 -313q0 -49 14 -96t58 -78q31 -22 90.5 -26.5t112.5 -4.5h96
q99 0 155 -55.5t56 -146.5q0 -101 -65.5 -198.5t-157.5 -171.5h-184l3 14q114 82 168 154t54 146q0 38 -19.5 69t-66.5 31z" />
    <glyph glyph-name="eta" unicode="&#x3b7;" horiz-adv-x="1296" 
d="M1175 862q0 -24 -4.5 -65t-12.5 -72l-264 -1137h-188l243 1048q12 53 18.5 92.5t6.5 78.5q0 84 -41.5 126.5t-149.5 42.5q-76 0 -167.5 -42t-178.5 -100l-193 -834h-188l258 1117h188l-29 -124q107 75 200.5 115t192.5 40q146 0 227.5 -73.5t81.5 -212.5z" />
    <glyph glyph-name="theta" unicode="&#x3b8;" horiz-adv-x="1278" 
d="M1151 1415q45 -63 63.5 -147t18.5 -175q0 -73 -17.5 -213t-52.5 -269q-38 -141 -99 -274.5t-151 -216.5q-85 -77 -174.5 -114t-204.5 -37q-114 0 -190.5 37.5t-121.5 101.5q-46 64 -64.5 148t-18.5 173q0 80 13 195.5t50 263.5q34 139 93.5 272t146.5 227
q72 78 171.5 123.5t224.5 45.5q116 0 192 -38.5t121 -102.5zM1047 1091q0 161 -56 236t-177 75q-79 0 -139 -28.5t-115 -98.5q-64 -81 -110 -206t-68 -217h643q8 49 15 111.5t7 127.5zM996 702h-643q-10 -50 -19 -126.5t-9 -142.5q0 -157 54.5 -233.5t178.5 -76.5
q79 0 144 32.5t117 103.5q64 88 111 216.5t66 226.5z" />
    <glyph glyph-name="iota" unicode="&#x3b9;" horiz-adv-x="562" 
d="M505 1117l-258 -1117h-190l258 1117h190z" />
    <glyph glyph-name="kappa" unicode="&#x3ba;" horiz-adv-x="1212" 
d="M1082 0h-228l-357 491l-162 -131l-82 -360h-190l258 1117h190l-130 -561l469 422q100 91 160 116t124 25q27 0 68.5 -1t48.5 -1l-38 -162h-11q-15 2 -37.5 3t-41.5 1q-41 0 -82 -27t-93 -73l-302 -270z" />
    <glyph glyph-name="lambda" unicode="&#x3bb;" horiz-adv-x="1212" 
d="M573 1556h200l270 -1556h-194l-138 854l-561 -854h-207l726 1078z" />
    <glyph glyph-name="mu" unicode="&#x3bc;" horiz-adv-x="1308" 
d="M994 0h-180l17 118q-78 -71 -150 -105t-156 -34t-143 34.5t-111 99.5l-121 -525h-190l353 1529h190l-194 -838q36 -59 99.5 -93.5t143.5 -34.5q96 0 174 37.5t144 96.5l192 832h190z" />
    <glyph glyph-name="nu" unicode="&#x3bd;" horiz-adv-x="1210" 
d="M1266 1117l-710 -1117h-187l-191 1117h192l141 -889l548 889h207z" />
    <glyph glyph-name="xi" unicode="&#x3be;" horiz-adv-x="1030" 
d="M903 -42q0 -101 -65.5 -198.5t-157.5 -171.5h-184l3 14q110 79 166 151.5t56 148.5q0 38 -19.5 69t-65.5 31h-137q-153 0 -233 33t-123 80q-42 45 -63.5 101.5t-21.5 120.5q0 98 36 175t101 140q62 61 147 102.5t178 62.5l2 11q-96 23 -156 86.5t-60 157.5q0 54 19.5 102
t58.5 93q35 41 85 75.5t97 61.5l2 6h-238l33 146h824l-34 -150h-246q-73 0 -142.5 -19.5t-129.5 -61.5q-56 -39 -92 -102t-36 -145q0 -60 26.5 -99t68.5 -60q46 -23 97.5 -31t111.5 -8h170l-36 -154h-292q-75 0 -143 -25t-126 -73q-55 -46 -89.5 -113.5t-34.5 -148.5
q0 -75 33.5 -117t88.5 -61q55 -20 125.5 -24t146.5 -4h38q99 0 155 -55.5t56 -146.5z" />
    <glyph glyph-name="omicron" unicode="&#x3bf;" horiz-adv-x="1243" 
d="M1154 722q0 -150 -46 -288t-130 -240q-87 -106 -201 -165.5t-266 -59.5q-199 0 -310.5 113.5t-111.5 313.5q0 150 45.5 286t131.5 242q83 102 203.5 163t263.5 61q193 0 307 -110t114 -316zM848 300q54 80 82.5 185t28.5 222q0 140 -67 212t-189 72q-97 0 -174 -46.5
t-133 -127.5q-54 -79 -83 -185t-29 -220q0 -138 67 -212t190 -74q96 0 174 46t133 128z" />
    <glyph glyph-name="pi" unicode="&#x3c0;" horiz-adv-x="1305" 
d="M992 0h-190l224 967h-557l-224 -967h-190l258 1117h937z" />
    <glyph glyph-name="rho" unicode="&#x3c1;" horiz-adv-x="1278" 
d="M1194 734q0 -125 -42 -260t-123 -244q-88 -118 -206 -185t-263 -67q-62 0 -151.5 19.5t-153.5 60.5l-108 -470h-190l244 1063q56 247 205.5 372t371.5 125q114 0 193.5 -33.5t128.5 -89.5t71.5 -131.5t22.5 -159.5zM995 719q0 51 -12 100.5t-41 88.5q-28 38 -76 61
t-114 23q-142 0 -233 -89.5t-135 -282.5l-94 -411q65 -37 128.5 -53.5t140.5 -16.5q117 0 200.5 56.5t134.5 140.5q52 85 76.5 187t24.5 196z" />
    <glyph glyph-name="sigma1" unicode="&#x3c2;" horiz-adv-x="1040" 
d="M902 -42q0 -101 -65.5 -198.5t-157.5 -171.5h-184l3 14q116 84 169 155.5t53 144.5q0 38 -19.5 69t-65.5 31h-92q-98 0 -181.5 22.5t-144.5 70.5t-95 123.5t-34 180.5q0 317 201 530.5t500 213.5q87 0 168 -19.5t137 -44.5l-44 -201h-12q-43 41 -124.5 75.5t-172.5 34.5
q-103 0 -186 -47t-145 -126q-59 -77 -91 -177t-32 -201q0 -132 76.5 -204.5t222.5 -72.5h105q100 0 155.5 -56t55.5 -146z" />
    <glyph glyph-name="sigma" unicode="&#x3c3;" horiz-adv-x="1291" 
d="M1154 722q0 -150 -46 -288t-130 -240q-87 -106 -201 -165.5t-266 -59.5q-199 0 -310.5 113.5t-111.5 313.5q0 150 45.5 286t131.5 242q83 102 203.5 163t263.5 61q51 0 97 -8t85 -23h509l-35 -150h-319q37 -43 60.5 -108t23.5 -137zM848 300q54 80 82.5 185t28.5 222
q0 140 -67 212t-189 72q-97 0 -174 -46.5t-133 -127.5q-54 -79 -83 -185t-29 -220q0 -138 67 -212t190 -74q96 0 174 46t133 128z" />
    <glyph glyph-name="tau" unicode="&#x3c4;" horiz-adv-x="1016" 
d="M1099 967h-403l-221 -967h-190l221 967h-403l36 150h996z" />
    <glyph glyph-name="upsilon" unicode="&#x3c5;" horiz-adv-x="1291" 
d="M1079 407q-51 -218 -187.5 -327.5t-366.5 -109.5q-188 0 -292 82.5t-104 238.5q0 32 3 62t11 67l161 697h190l-146 -632q-9 -39 -15 -86t-6 -80q0 -95 49 -144.5t181 -49.5q90 0 149 23.5t96 69.5q37 45 60 106.5t43 151.5l148 641h190z" />
    <glyph glyph-name="phi" unicode="&#x3c6;" horiz-adv-x="1618" 
d="M1539 697q0 -158 -62.5 -287.5t-166.5 -218.5q-107 -92 -244 -144.5t-294 -60.5l-92 -398h-189l92 398q-226 11 -362 133t-136 327q0 99 28 190t81 176q49 77 122.5 152.5t167.5 152.5h232l-2 -17q-212 -130 -322 -292t-110 -331q0 -161 89 -248.5t245 -92.5l233 1007
q33 2 70 2.5t76 0.5q254 0 399 -116.5t145 -332.5zM1201 308q71 77 106 169t35 199q0 149 -88.5 234.5t-248.5 85.5l-199 -860q129 6 229 52.5t166 119.5z" />
    <glyph glyph-name="chi" unicode="&#x3c7;" horiz-adv-x="1208" 
d="M458 370l-269 747h200l204 -596l471 596h214l-619 -766l276 -763h-200l-211 613l-486 -613h-214z" />
    <glyph glyph-name="psi" unicode="&#x3c8;" horiz-adv-x="1683" 
d="M1481 442q-28 -119 -92 -199t-160 -135q-95 -54 -201 -80.5t-222 -31.5l-94 -408h-189l94 408q-97 5 -183.5 29t-150.5 70q-64 45 -102 113t-38 157q0 30 3 53.5t8 48.5l150 650h190l-140 -603q-6 -24 -10 -55t-4 -53q0 -81 29.5 -130t70.5 -75q43 -28 98.5 -41.5
t111.5 -16.5l226 974h189l-226 -974q64 5 138.5 21t135.5 53q63 39 115 107.5t77 180.5l142 612h190z" />
    <glyph glyph-name="omega" unicode="&#x3c9;" horiz-adv-x="1666" 
d="M1565 668q0 -101 -30.5 -228t-91.5 -226q-77 -123 -180.5 -183.5t-231.5 -60.5q-101 0 -173.5 47t-103.5 119h-6q-55 -71 -136.5 -118.5t-183.5 -47.5q-96 0 -162 33.5t-108 87.5q-42 55 -61.5 127t-19.5 151q0 118 28.5 214t84.5 191q51 88 125.5 171t170.5 172h240
l-3 -17q-96 -66 -175.5 -140.5t-142.5 -167.5q-63 -91 -98 -195t-35 -218q0 -54 7.5 -93.5t30.5 -80.5q21 -36 56 -58t91 -22q48 0 84 11.5t61 31.5q24 18 40.5 39t28.5 39l136 588h188l-136 -588q5 -17 17 -38t34 -39q23 -19 55.5 -31.5t86.5 -12.5q89 0 152 56.5t99 137.5
q38 82 54.5 171.5t16.5 163.5q0 144 -50.5 255t-134.5 191l3 17h216q74 -105 115.5 -214.5t41.5 -234.5z" />
    <glyph glyph-name="iotadieresis" unicode="&#x3ca;" horiz-adv-x="562" 
d="M505 1117l-258 -1117h-190l258 1117h190zM744 1499l-45 -195h-189l45 195h189zM381 1499l-45 -195h-189l45 195h189z" />
    <glyph glyph-name="upsilondieresis" unicode="&#x3cb;" horiz-adv-x="1291" 
d="M1079 407q-51 -218 -187.5 -327.5t-366.5 -109.5q-188 0 -292 82.5t-104 238.5q0 32 3 62t11 67l161 697h190l-146 -632q-9 -39 -15 -86t-6 -80q0 -95 49 -144.5t181 -49.5q90 0 149 23.5t96 69.5q37 45 60 106.5t43 151.5l148 641h190zM1121 1304h-201l45 195h201z
M706 1304h-201l45 195h201z" />
    <glyph glyph-name="omicrontonos" unicode="&#x3cc;" horiz-adv-x="1243" 
d="M1154 722q0 -150 -46 -288t-130 -240q-87 -106 -201 -165.5t-266 -59.5q-199 0 -310.5 113.5t-111.5 313.5q0 150 45.5 286t131.5 242q83 102 203.5 163t263.5 61q193 0 307 -110t114 -316zM848 300q54 80 82.5 185t28.5 222q0 140 -67 212t-189 72q-97 0 -174 -46.5
t-133 -127.5q-54 -79 -83 -185t-29 -220q0 -138 67 -212t190 -74q96 0 174 46t133 128zM976 1676l-143 -384h-147l45 384h245z" />
    <glyph glyph-name="upsilontonos" unicode="&#x3cd;" horiz-adv-x="1291" 
d="M1079 407q-51 -218 -187.5 -327.5t-366.5 -109.5q-188 0 -292 82.5t-104 238.5q0 32 3 62t11 67l161 697h190l-146 -632q-9 -39 -15 -86t-6 -80q0 -95 49 -144.5t181 -49.5q90 0 149 23.5t96 69.5q37 45 60 106.5t43 151.5l148 641h190zM1002 1676l-143 -384h-147l45 384
h245z" />
    <glyph glyph-name="omegatonos" unicode="&#x3ce;" horiz-adv-x="1666" 
d="M1565 668q0 -101 -30.5 -228t-91.5 -226q-77 -123 -180.5 -183.5t-231.5 -60.5q-101 0 -173.5 47t-103.5 119h-6q-55 -71 -136.5 -118.5t-183.5 -47.5q-96 0 -162 33.5t-108 87.5q-42 55 -61.5 127t-19.5 151q0 118 28.5 214t84.5 191q51 88 125.5 171t170.5 172h240
l-3 -17q-96 -66 -175.5 -140.5t-142.5 -167.5q-63 -91 -98 -195t-35 -218q0 -54 7.5 -93.5t30.5 -80.5q21 -36 56 -58t91 -22q48 0 84 11.5t61 31.5q24 18 40.5 39t28.5 39l136 588h188l-136 -588q5 -17 17 -38t34 -39q23 -19 55.5 -31.5t86.5 -12.5q89 0 152 56.5t99 137.5
q38 82 54.5 171.5t16.5 163.5q0 144 -50.5 255t-134.5 191l3 17h216q74 -105 115.5 -214.5t41.5 -234.5zM1210 1676l-143 -384h-147l45 384h245z" />
    <glyph glyph-name="afii10023" unicode="&#x401;" horiz-adv-x="1295" 
d="M1395 1489l-39 -169h-783l-96 -420h783l-39 -168h-783l-130 -563h783l-39 -169h-981l343 1489h981zM1241 1677h-201l45 195h201zM826 1677h-201l45 195h201z" />
    <glyph glyph-name="afii10051" unicode="&#x402;" horiz-adv-x="1623" 
d="M1530 560q0 -143 -63.5 -257.5t-166.5 -185.5q-98 -67 -200 -92t-254 -25h-99l41 170h32q140 0 208 10t133 50q79 49 118 123.5t39 174.5q0 49 -15.5 89.5t-50.5 67.5q-50 38 -117.5 46t-201.5 8h-264l-170 -739h-200l305 1320h-430l39 169h1130l-39 -169h-500l-97 -419
h321q152 0 242 -19t165 -85q47 -42 71 -102t24 -135z" />
    <glyph glyph-name="afii10052" unicode="&#x403;" horiz-adv-x="1160" 
d="M1339 1320h-764l-305 -1320h-200l344 1489h964zM1283 2049l-355 -374h-156l254 374h257z" />
    <glyph glyph-name="afii10053" unicode="&#x404;" horiz-adv-x="1435" 
d="M345 714q-5 -33 -7.5 -73.5t-2.5 -68.5q0 -199 117 -317t326 -118q139 0 274.5 39.5t226.5 104.5h16l-50 -216q-103 -38 -232 -65t-265 -27q-287 0 -451 148t-164 421q0 209 62 383.5t180 308.5q116 131 285 206.5t378 75.5q138 0 265.5 -27t213.5 -64l-47 -215h-16
q-67 64 -189 103.5t-263 39.5q-211 0 -378.5 -120.5t-240.5 -353.5h840l-38 -165h-840z" />
    <glyph glyph-name="afii10054" unicode="&#x405;" horiz-adv-x="1400" 
d="M585 -27q-145 0 -276 30.5t-257 93.5l48 227h14q96 -91 235.5 -139.5t269.5 -48.5q213 0 326.5 84.5t113.5 215.5q0 69 -40.5 115t-118.5 68q-65 18 -154.5 34.5t-170.5 35.5q-157 35 -243 120t-86 211q0 213 180.5 354.5t466.5 141.5q156 0 283.5 -32.5t219.5 -76.5
l-45 -213h-14q-71 65 -202.5 112t-276.5 47q-182 0 -290.5 -80t-108.5 -203q0 -66 39 -116t139 -75q64 -15 170 -36.5t178 -40.5q142 -39 215.5 -116t73.5 -194q0 -98 -48 -195t-134 -166q-92 -74 -215.5 -116t-291.5 -42z" />
    <glyph glyph-name="afii10055" unicode="&#x406;" horiz-adv-x="862" 
d="M597 0h-590l33 145h195l278 1199h-195l33 145h590l-33 -145h-195l-278 -1199h195z" />
    <glyph glyph-name="afii10056" unicode="&#x407;" horiz-adv-x="862" 
d="M597 0h-590l33 145h195l278 1199h-195l33 145h590l-33 -145h-195l-278 -1199h195zM1001 1677h-201l45 195h201zM586 1677h-201l45 195h201z" />
    <glyph glyph-name="afii10057" unicode="&#x408;" horiz-adv-x="931" 
d="M709 387q-46 -197 -188 -302.5t-344 -105.5q-48 0 -126 8.5t-129 20.5l42 178h11q39 -14 95 -29t119 -15q91 0 151 23t94 64q36 43 57 103t36 130l200 876h-324l35 151h524z" />
    <glyph glyph-name="afii10058" unicode="&#x409;" horiz-adv-x="2290" 
d="M1985 528q0 49 -15.5 89.5t-50.5 67.5q-50 38 -117.5 46t-201.5 8h-263l-133 -577h281q137 0 208.5 13.5t134.5 52.5q79 49 118 124.5t39 175.5zM2197 560q0 -143 -63.5 -257.5t-166.5 -185.5q-98 -67 -200 -92t-254 -25h-547l306 1320h-530q-27 -106 -56.5 -224
t-50.5 -198q-45 -179 -89.5 -310.5t-83.5 -214.5q-41 -87 -80.5 -146t-76.5 -97q-74 -78 -148 -105.5t-156 -27.5q-23 0 -59.5 1.5t-49.5 1.5l44 188h14q11 -1 30.5 -2t34.5 -1q35 0 70.5 12t62.5 35q85 69 156 236t148 464q28 107 62 244.5t76 312.5h920l-136 -588h321
q152 0 242 -19t165 -85q47 -42 71 -102t24 -135z" />
    <glyph glyph-name="afii10059" unicode="&#x40a;" horiz-adv-x="2259" 
d="M1954 528q0 49 -15.5 89.5t-50.5 67.5q-50 38 -117.5 46t-201.5 8h-263l-133 -577h281q137 0 208.5 13.5t134.5 52.5q79 49 118 124.5t39 175.5zM2166 560q0 -143 -63.5 -257.5t-166.5 -185.5q-98 -67 -200 -92t-254 -25h-547l170 739h-665l-170 -739h-200l343 1489h200
l-135 -588h664l136 588h200l-135 -588h321q152 0 242 -19t165 -85q47 -42 71 -102t24 -135z" />
    <glyph glyph-name="afii10060" unicode="&#x40b;" horiz-adv-x="1675" 
d="M499 0h-200l305 1320h-430l39 169h1130l-39 -169h-500l-109 -474q103 31 226.5 56.5t226.5 25.5q181 0 284 -78t103 -231q0 -24 -5 -65t-12 -68l-113 -486h-200l90 387q11 51 19.5 96t8.5 87q0 100 -61 142.5t-189 42.5q-115 0 -214 -20.5t-201 -51.5z" />
    <glyph glyph-name="afii10061" unicode="&#x40c;" horiz-adv-x="1419" 
d="M1285 0h-239l-466 679h-148l-157 -679h-200l343 1489h200l-153 -668q45 1 95.5 10.5t92.5 31.5q48 25 94.5 67t91.5 105q23 32 48.5 71.5t52.5 82.5q113 173 216 236.5t281 63.5h89l-40 -172h-90q-60 0 -105 -17.5t-83 -53.5q-36 -35 -68 -86t-60 -95
q-88 -138 -158.5 -199.5t-162.5 -102.5zM1342 2049l-355 -374h-156l254 374h257z" />
    <glyph glyph-name="uni040D" unicode="&#x40d;" horiz-adv-x="1537" 
d="M1209 0h-198l272 1177l-1012 -1177h-201l343 1489h198l-269 -1159l1000 1159h210zM1118 1675h-145l-197 374h236z" />
    <glyph glyph-name="afii10062" unicode="&#x40e;" horiz-adv-x="1260" 
d="M1471 1489l-851 -1253q-55 -81 -113 -129.5t-117 -74.5q-57 -24 -106 -31.5t-96 -7.5q-40 0 -96 4t-72 5l41 180h14q15 -2 49 -6.5t79 -4.5q20 0 54 1.5t64 13.5q33 12 70 39t72 81l61 90l-306 1093h210l239 -880l590 880h214zM1282 1935q-37 -162 -151.5 -248
t-288.5 -86q-160 0 -237.5 70.5t-77.5 189.5q0 20 2 36.5t5 37.5h178q-3 -18 -5 -36t-2 -33q0 -76 39.5 -111.5t118.5 -35.5q94 0 152.5 51t82.5 165h184z" />
    <glyph glyph-name="afii10145" unicode="&#x40f;" horiz-adv-x="1539" 
d="M548 0h-478l343 1489h201l-306 -1322h741l305 1322h200l-343 -1489h-474l-79 -337h-189z" />
    <glyph glyph-name="afii10017" unicode="&#x410;" horiz-adv-x="1398" 
d="M1261 0h-201l-50 419h-642l-244 -419h-209l886 1489h262zM988 581l-93 735l-432 -735h525z" />
    <glyph glyph-name="afii10018" unicode="&#x411;" horiz-adv-x="1404" 
d="M1099 528q0 49 -15.5 89.5t-50.5 67.5q-50 38 -117.5 46t-201.5 8h-273l-133 -577h291q137 0 208.5 13.5t134.5 52.5q79 49 118 124.5t39 175.5zM1311 560q0 -143 -63.5 -257.5t-166.5 -185.5q-98 -67 -200 -92t-254 -25h-557l343 1489h996l-38 -169h-796l-97 -419h331
q152 0 242 -19t165 -85q47 -42 71 -102t24 -135z" />
    <glyph glyph-name="afii10019" unicode="&#x412;" horiz-adv-x="1404" 
d="M1081 120q-97 -65 -203 -92.5t-261 -27.5h-547l343 1489h428q163 0 242.5 -11t145.5 -51q55 -34 82.5 -86.5t27.5 -116.5q0 -129 -73 -228t-202 -153v-8q120 -27 183.5 -101t63.5 -190q0 -127 -63.5 -240.5t-166.5 -183.5zM1124 1169q0 42 -14 69.5t-40 45.5
q-42 28 -105 35.5t-163 7.5h-226l-102 -442h260q86 0 150 12.5t112 39.5q62 36 95 102.5t33 129.5zM1102 530q0 56 -19 90.5t-68 64.5q-40 25 -102.5 33t-173.5 8h-301l-131 -564h273q133 0 216.5 14.5t144.5 51.5q79 47 120 128.5t41 173.5z" />
    <glyph glyph-name="afii10020" unicode="&#x413;" horiz-adv-x="1160" 
d="M1339 1320h-764l-305 -1320h-200l344 1489h964z" />
    <glyph glyph-name="afii10021" unicode="&#x414;" horiz-adv-x="1527" 
d="M1237 -337h-190l79 341h-1055l-79 -341h-190l117 506h116q181 215 340 560.5t254 759.5h883l-304 -1320h146zM1008 169l266 1155h-495q-97 -358 -237 -664t-299 -491h765z" />
    <glyph glyph-name="afii10022" unicode="&#x415;" horiz-adv-x="1295" 
d="M1395 1489l-39 -169h-783l-96 -420h783l-39 -168h-783l-130 -563h783l-39 -169h-981l343 1489h981z" />
    <glyph glyph-name="afii10024" unicode="&#x416;" horiz-adv-x="1993" 
d="M1841 0h-224l-388 684h-106l-158 -684h-197l158 684h-98l-665 -684h-252l764 781q-70 51 -105.5 125.5t-43.5 178.5q-5 64 -14.5 106.5t-32.5 71.5q-23 28 -61.5 41t-102.5 13h-55l40 172h67q163 0 239 -67.5t96 -232.5q3 -29 9 -77t11 -77q19 -105 73 -156.5t161 -61.5
l155 672h197l-156 -674q97 9 172.5 57.5t147.5 163.5q22 34 47.5 77t44.5 77q102 174 210.5 236.5t271.5 62.5h72l-40 -172h-59q-60 0 -99 -13t-75 -43q-34 -29 -63 -72.5t-62 -103.5q-74 -135 -147 -207t-166 -114z" />
    <glyph glyph-name="afii10025" unicode="&#x417;" horiz-adv-x="1261" 
d="M1149 522q0 -130 -67.5 -235t-170.5 -181q-95 -69 -215 -101t-254 -32q-152 0 -273 29t-188 59l48 210h15q84 -56 197.5 -95.5t238.5 -39.5q72 0 161.5 24.5t147.5 65.5q72 51 111.5 123t39.5 165q0 106 -83 158.5t-255 52.5h-213l38 162h186q186 0 305.5 76.5
t119.5 208.5q0 84 -72.5 131.5t-217.5 47.5q-106 0 -233 -35t-241 -96h-13l49 210q82 33 213.5 59.5t252.5 26.5q222 0 348 -76t126 -224q0 -146 -108 -254t-256 -139l-3 -15q44 -8 92 -27.5t86 -51.5q38 -33 63 -84t25 -123z" />
    <glyph glyph-name="afii10026" unicode="&#x418;" horiz-adv-x="1537" 
d="M1209 0h-198l272 1177l-1012 -1177h-201l343 1489h198l-269 -1159l1000 1159h210z" />
    <glyph glyph-name="afii10027" unicode="&#x419;" horiz-adv-x="1537" 
d="M1209 0h-198l272 1177l-1012 -1177h-201l343 1489h198l-269 -1159l1000 1159h210zM1423 1935q-37 -162 -151.5 -248t-288.5 -86q-160 0 -237.5 70.5t-77.5 189.5q0 20 2 36.5t5 37.5h178q-3 -18 -5 -36t-2 -33q0 -76 39.5 -111.5t118.5 -35.5q94 0 152.5 51t82.5 165h184
z" />
    <glyph glyph-name="afii10028" unicode="&#x41a;" horiz-adv-x="1419" 
d="M1285 0h-239l-466 679h-148l-157 -679h-200l343 1489h200l-153 -668q45 1 95.5 10.5t92.5 31.5q48 25 94.5 67t91.5 105q23 32 48.5 71.5t52.5 82.5q113 173 216 236.5t281 63.5h89l-40 -172h-90q-60 0 -105 -17.5t-83 -53.5q-36 -35 -68 -86t-60 -95
q-88 -138 -158.5 -199.5t-162.5 -102.5z" />
    <glyph glyph-name="afii10029" unicode="&#x41b;" horiz-adv-x="1504" 
d="M1281 1320h-539q-27 -106 -56.5 -224t-50.5 -198q-45 -179 -89.5 -310.5t-83.5 -214.5q-41 -87 -80.5 -146t-76.5 -97q-74 -78 -148 -105.5t-156 -27.5q-23 0 -59.5 1.5t-49.5 1.5l44 188h14q11 -1 30.5 -2t34.5 -1q35 0 70.5 12t62.5 35q85 69 156 236t148 464
q28 107 62 244.5t76 312.5h930l-344 -1489h-200z" />
    <glyph glyph-name="afii10030" unicode="&#x41c;" horiz-adv-x="1726" 
d="M1398 0h-200l294 1265l-605 -855h-118l-210 894l-302 -1304h-187l344 1489h272l201 -829l580 829h275z" />
    <glyph glyph-name="afii10031" unicode="&#x41d;" horiz-adv-x="1539" 
d="M1553 1489l-343 -1489h-198l169 732h-743l-169 -732h-198l343 1489h198l-135 -589h743l135 589h198z" />
    <glyph glyph-name="afii10032" unicode="&#x41e;" horiz-adv-x="1612" 
d="M1563 962q0 -194 -58.5 -374t-169.5 -317q-114 -141 -274 -221.5t-361 -80.5q-266 0 -416 145.5t-150 413.5q0 204 60 381t173 316q110 134 272.5 214.5t356.5 80.5q265 0 416 -144.5t151 -413.5zM1184 370q84 114 127 254.5t43 309.5q0 204 -102.5 313.5t-286.5 109.5
q-143 0 -258 -65.5t-198 -177.5q-80 -110 -123 -255.5t-43 -299.5q0 -206 102.5 -316.5t287.5 -110.5q141 0 256.5 65t194.5 173z" />
    <glyph glyph-name="afii10033" unicode="&#x41f;" horiz-adv-x="1539" 
d="M1554 1489l-343 -1489h-200l304 1320h-741l-304 -1320h-200l343 1489h1141z" />
    <glyph glyph-name="afii10034" unicode="&#x420;" horiz-adv-x="1235" 
d="M1095 709q-92 -76 -205.5 -113.5t-273.5 -37.5h-217l-129 -558h-200l344 1489h392q136 0 225 -24t146 -69q59 -45 90 -109.5t31 -155.5q0 -122 -53 -231.5t-150 -190.5zM1086 1097q0 51 -17 95t-53 72q-43 33 -101.5 47.5t-152.5 14.5h-185l-141 -607h178q120 0 199.5 22
t137.5 70q68 57 101.5 128t33.5 158z" />
    <glyph glyph-name="afii10035" unicode="&#x421;" horiz-adv-x="1430" 
d="M738 -27q-283 0 -444 146.5t-161 415.5q0 206 62 384t178 312q115 132 283 208.5t375 76.5q129 0 244 -31.5t236 -99.5l-45 -224h-15q-33 33 -66.5 61.5t-100.5 62.5q-55 29 -131 48.5t-168 19.5q-140 0 -257 -58.5t-203 -163.5q-84 -102 -132 -248t-48 -311
q0 -206 107 -320.5t309 -114.5q95 0 180.5 21.5t155.5 54.5q65 31 117 65t89 63h14l-47 -230q-105 -53 -241.5 -95.5t-290.5 -42.5z" />
    <glyph glyph-name="afii10036" unicode="&#x422;" horiz-adv-x="1262" 
d="M1438 1320h-531l-305 -1320h-200l305 1320h-531l38 169h1262z" />
    <glyph glyph-name="afii10037" unicode="&#x423;" horiz-adv-x="1260" 
d="M1471 1489l-851 -1253q-55 -81 -113 -129.5t-117 -74.5q-57 -24 -106 -31.5t-96 -7.5q-40 0 -96 4t-72 5l41 180h14q15 -2 49 -6.5t79 -4.5q20 0 54 1.5t64 13.5q33 12 70 39t72 81l61 90l-306 1093h210l239 -880l590 880h214z" />
    <glyph glyph-name="afii10038" unicode="&#x424;" horiz-adv-x="1669" 
d="M1631 881q0 -170 -71 -314t-189 -241q-100 -82 -242.5 -127.5t-291.5 -48.5l-39 -166h-196l39 166q-115 5 -209.5 40t-162.5 95q-69 60 -107.5 144.5t-38.5 189.5q0 170 70.5 313t189.5 242q93 78 237 125t298 51l36 155h196l-36 -155q228 -9 372.5 -135.5t144.5 -333.5z
M1420 857q0 64 -20 126.5t-60 109.5q-43 50 -107.5 78t-152.5 31l-210 -904q106 5 197 36t151 79q98 78 150 192.5t52 251.5zM674 298l210 904q-96 -3 -188 -32.5t-160 -82.5q-94 -73 -148 -193.5t-54 -250.5q0 -66 19.5 -127.5t60.5 -108.5q39 -46 106 -76.5t154 -32.5z
" />
    <glyph glyph-name="afii10039" unicode="&#x425;" horiz-adv-x="1403" 
d="M640 749l-344 740h216l270 -595l547 595h223l-695 -742l348 -747h-217l-273 602l-555 -602h-222z" />
    <glyph glyph-name="afii10040" unicode="&#x426;" horiz-adv-x="1559" 
d="M1157 0h-1087l344 1489h200l-306 -1322h731l307 1322h200l-307 -1322h146l-116 -504h-190z" />
    <glyph glyph-name="afii10041" unicode="&#x427;" horiz-adv-x="1458" 
d="M1130 0h-200l146 633q-123 -38 -225.5 -62.5t-232.5 -24.5q-184 0 -288.5 85t-104.5 237q0 32 4 63.5t12 68.5l113 489h200l-94 -408q-9 -38 -15.5 -85.5t-6.5 -77.5q0 -109 65 -153t190 -44q113 0 226 23t195 52l159 693h200z" />
    <glyph glyph-name="afii10042" unicode="&#x428;" horiz-adv-x="2110" 
d="M1782 0h-1712l343 1489h200l-304 -1322h556l304 1322h200l-304 -1322h556l304 1322h200z" />
    <glyph glyph-name="afii10043" unicode="&#x429;" horiz-adv-x="2140" 
d="M1739 0h-1669l343 1489h200l-304 -1322h556l304 1322h200l-304 -1322h556l304 1322h200l-304 -1322h146l-116 -504h-190z" />
    <glyph glyph-name="afii10044" unicode="&#x42a;" horiz-adv-x="1614" 
d="M1309 528q0 49 -15.5 89.5t-50.5 67.5q-50 38 -117.5 46t-201.5 8h-263l-133 -577h281q137 0 208.5 13.5t134.5 52.5q79 49 118 124.5t39 175.5zM1521 560q0 -143 -63.5 -257.5t-166.5 -185.5q-98 -67 -200 -92t-254 -25h-547l305 1320h-419l38 169h619l-135 -588h321
q152 0 242 -19t165 -85q47 -42 71 -102t24 -135z" />
    <glyph glyph-name="afii10045" unicode="&#x42b;" horiz-adv-x="1885" 
d="M1089 528q0 49 -15.5 89.5t-50.5 67.5q-50 38 -117.5 46t-201.5 8h-263l-133 -577h281q137 0 208.5 13.5t134.5 52.5q79 49 118 124.5t39 175.5zM1301 560q0 -143 -63.5 -257.5t-166.5 -185.5q-98 -67 -200 -92t-254 -25h-547l343 1489h200l-135 -588h321q152 0 242 -19
t165 -85q47 -42 71 -102t24 -135zM1557 0h-200l344 1489h200z" />
    <glyph glyph-name="afii10046" unicode="&#x42c;" horiz-adv-x="1394" 
d="M1089 528q0 49 -15.5 89.5t-50.5 67.5q-50 38 -117.5 46t-201.5 8h-263l-133 -577h281q137 0 208.5 13.5t134.5 52.5q79 49 118 124.5t39 175.5zM1301 560q0 -143 -63.5 -257.5t-166.5 -185.5q-98 -67 -200 -92t-254 -25h-547l343 1489h200l-135 -588h321q152 0 242 -19
t165 -85q47 -42 71 -102t24 -135z" />
    <glyph glyph-name="afii10047" unicode="&#x42d;" horiz-adv-x="1436" 
d="M1392 955q0 -214 -63.5 -397t-180.5 -311q-121 -132 -287 -203.5t-382 -71.5q-140 0 -265.5 25.5t-211.5 65.5l49 215h16q66 -64 188 -103.5t261 -39.5q130 0 241 42.5t197 122.5q82 78 137 183.5t79 230.5h-825l38 165h807q0 12 0.5 23t0.5 29q0 104 -31.5 183
t-90.5 132t-142 79t-182 26q-140 0 -267 -38t-231 -104h-17l49 214q94 37 226 64.5t269 27.5q149 0 263 -38t190 -106q82 -72 123.5 -173.5t41.5 -242.5z" />
    <glyph glyph-name="afii10048" unicode="&#x42e;" horiz-adv-x="2118" 
d="M1859 934q0 205 -100.5 314t-281.5 109q-144 0 -257.5 -66.5t-192.5 -176.5q-78 -108 -120 -255t-42 -300q0 -206 99.5 -316.5t282.5 -110.5q137 0 252 65t193 173q82 113 124.5 254t42.5 310zM2070 962q0 -193 -58 -374t-168 -317q-116 -144 -272 -223t-356 -79
q-263 0 -410.5 148t-147.5 416q0 50 3.5 94t11.5 96h-236l-167 -723h-200l343 1489h200l-138 -601h236q40 131 112 247t179 206q99 83 229.5 131t276.5 48q262 0 412 -144.5t150 -413.5z" />
    <glyph glyph-name="afii10049" unicode="&#x42f;" horiz-adv-x="1446" 
d="M1118 0h-200l138 597h-306l-582 -597h-253l625 629q-122 55 -178 138.5t-56 191.5q0 149 69.5 261.5t181.5 178.5q80 50 178.5 70t215.5 20h510zM1092 753l132 573h-313q-87 0 -139 -10.5t-104 -41.5q-77 -46 -113.5 -132t-36.5 -174q0 -107 65.5 -161t214.5 -54h294z
" />
    <glyph glyph-name="afii10065" unicode="&#x430;" horiz-adv-x="1230" 
d="M874 589q-154 -6 -273.5 -23.5t-197.5 -50.5q-81 -33 -123 -89.5t-42 -140.5q0 -72 49 -110t152 -38q91 0 185.5 40.5t176.5 97.5zM765 119q-27 -16 -73.5 -45.5t-94.5 -50.5q-51 -23 -114 -38.5t-145 -15.5q-133 0 -216 77.5t-83 202.5q0 133 58.5 224.5t173.5 149.5
q113 57 272.5 82.5t363.5 31.5q6 28 10 48.5t4 42.5q0 48 -19 78t-54 48t-81.5 24.5t-102.5 6.5q-85 0 -194 -27.5t-177 -54.5h-10l37 188q57 15 167 34t211 19q208 0 312 -65t104 -206q0 -27 -4.5 -57.5t-10.5 -57.5l-175 -758h-187z" />
    <glyph glyph-name="afii10066" unicode="&#x431;" horiz-adv-x="1258" 
d="M1053 982q54 -47 85.5 -121t31.5 -170q0 -159 -51.5 -293.5t-141.5 -229.5q-92 -98 -204 -148.5t-244 -50.5q-197 0 -310 121.5t-113 359.5q0 105 20 225t65 259q41 127 106.5 243t150.5 186q88 73 220.5 118.5t335.5 63.5q81 7 150 11.5t124 8.5l-33 -162
q-63 -4 -132.5 -9.5t-130.5 -10.5q-100 -9 -219 -40t-196 -95q-51 -41 -102 -117t-83 -180q86 54 189.5 90.5t204.5 36.5q84 0 154.5 -24.5t122.5 -71.5zM972 646q0 132 -69.5 201t-198.5 69q-89 0 -183.5 -30t-171.5 -74q-20 -72 -36 -176t-16 -170q0 -101 23 -168t61 -105
q37 -38 86 -53t99 -15q180 0 293 154t113 367z" />
    <glyph glyph-name="afii10067" unicode="&#x432;" horiz-adv-x="1218" 
d="M1072 386q0 -96 -53 -174.5t-129 -127.5q-77 -49 -157 -66.5t-198 -17.5h-480l258 1117h419q130 0 188 -9.5t110 -40.5q46 -28 67 -69t21 -93q0 -100 -60.5 -177.5t-164.5 -119.5v-8q77 -20 128 -73t51 -141zM918 868q0 26 -10.5 46.5t-33.5 34.5q-36 21 -85 23.5
t-134 2.5h-186l-74 -319h236q80 0 114 5t77 30q50 30 73 75.5t23 101.5zM874 380q0 36 -15 66t-56 51q-33 17 -80.5 18.5t-119.5 1.5h-240l-87 -375h190q106 0 173 8t113 32q63 33 92.5 81.5t29.5 116.5z" />
    <glyph glyph-name="afii10068" unicode="&#x433;" horiz-adv-x="965" 
d="M1050 967h-581l-224 -967h-190l258 1117h771z" />
    <glyph glyph-name="afii10069" unicode="&#x434;" horiz-adv-x="1273" 
d="M1016 -268h-177l63 271h-847l-63 -271h-177l97 421h124q149 178 271 436t185 528h703l-223 -964h141zM783 153l188 814h-336q-70 -248 -178 -461.5t-229 -352.5h555z" />
    <glyph glyph-name="afii10070" unicode="&#x435;" horiz-adv-x="1220" 
d="M960 680q5 29 7 49t2 44q0 107 -58.5 167t-187.5 60q-142 0 -252 -88t-149 -232h638zM584 -26q-232 0 -364 109t-132 319q0 307 194 526.5t480 219.5q190 0 291 -94.5t101 -265.5q0 -30 -8.5 -95t-27.5 -151h-823q-6 -29 -8.5 -57t-2.5 -52q0 -141 86 -221.5t244 -80.5
q110 0 226.5 43t195.5 97h11l-41 -203q-50 -18 -90 -33t-102 -30t-110 -23t-120 -8z" />
    <glyph glyph-name="afii10072" unicode="&#x436;" horiz-adv-x="1634" 
d="M1494 0h-213l-278 514h-91l-117 -514h-188l119 514h-86l-476 -514h-228l561 593q-35 26 -60.5 69.5t-35.5 138.5q-5 46 -10.5 71.5t-24.5 47.5q-17 20 -46 29t-75 9h-53l37 159h64q126 0 189 -50t79 -173q2 -27 7.5 -58t10.5 -58q15 -75 59 -109.5t115 -38.5l112 487h188
l-114 -487q64 5 122.5 38.5t108.5 109.5q15 23 37.5 59.5t35.5 58.5q39 66 80 109t84 68q44 25 95.5 34.5t111.5 9.5h69l-38 -162h-53q-72 0 -120.5 -39t-91.5 -117q-50 -90 -106 -139t-109 -74z" />
    <glyph glyph-name="afii10073" unicode="&#x437;" horiz-adv-x="1074" 
d="M757 72q-80 -50 -175.5 -74t-199.5 -24q-116 0 -221.5 22t-198.5 68l47 200h13q61 -64 168 -99t214 -35q64 0 129 15.5t105 42.5q48 33 71.5 75.5t23.5 97.5q0 46 -20 74.5t-55 44.5q-36 15 -81.5 20t-98.5 5h-182l36 153h126q43 0 117.5 6t115.5 22q62 24 89 67.5
t27 100.5q0 40 -20.5 65t-54.5 42q-33 15 -71 21t-75 6q-106 0 -209 -27t-186 -81h-13l46 203q74 23 186 42t197 19q71 0 140.5 -12.5t126.5 -40.5q56 -28 92.5 -77t36.5 -121q0 -108 -74 -190.5t-183 -114.5l-1 -7q79 -17 131 -71.5t52 -136.5q0 -101 -47.5 -176.5
t-123.5 -124.5z" />
    <glyph glyph-name="afii10074" unicode="&#x438;" horiz-adv-x="1311" 
d="M998 0h-188l195 839l-777 -839h-173l258 1117h188l-190 -821l766 821h179z" />
    <glyph glyph-name="afii10075" unicode="&#x439;" horiz-adv-x="1311" 
d="M998 0h-188l195 839l-777 -839h-173l258 1117h188l-190 -821l766 821h179zM1195 1557q-33 -150 -138.5 -232t-271.5 -82q-150 0 -224 66.5t-74 176.5q0 20 1.5 35.5t4.5 35.5h168q-3 -14 -5 -32.5t-2 -34.5q0 -70 37.5 -104t110.5 -34q88 0 142.5 49.5t76.5 155.5h174z
" />
    <glyph glyph-name="afii10076" unicode="&#x43a;" horiz-adv-x="1212" 
d="M1082 0h-228l-374 516h-108l-119 -516h-190l258 1117h190l-112 -485q78 0 143 29t130 116q20 26 41 58.5t39 59.5q66 98 153.5 160t259.5 62h86l-36 -158h-78q-78 0 -132.5 -37.5t-108.5 -119.5q-61 -92 -123 -143.5t-123 -76.5z" />
    <glyph glyph-name="afii10077" unicode="&#x43b;" horiz-adv-x="1271" 
d="M958 0h-190l223 967h-414q-22 -92 -40.5 -168t-35.5 -140q-34 -135 -66 -228t-60 -149q-33 -67 -62 -108.5t-56 -69.5q-63 -67 -122.5 -86.5t-124.5 -19.5q-17 0 -51.5 1t-44.5 1l38 164h10q7 0 22 -1t25 -1q22 0 52 8.5t49 24.5q59 49 116.5 170t115.5 343
q19 73 48 191.5t52 217.5h774z" />
    <glyph glyph-name="afii10078" unicode="&#x43c;" horiz-adv-x="1426" 
d="M1113 0h-187l200 865l-398 -557h-138l-150 593l-208 -901h-177l258 1117h229l158 -627l438 627h233z" />
    <glyph glyph-name="afii10079" unicode="&#x43d;" horiz-adv-x="1305" 
d="M992 0h-190l117 507h-557l-117 -507h-190l258 1117h190l-106 -460h557l106 460h190z" />
    <glyph glyph-name="afii10080" unicode="&#x43e;" horiz-adv-x="1243" 
d="M1154 722q0 -150 -46 -288t-130 -240q-87 -106 -201 -165.5t-266 -59.5q-199 0 -310.5 113.5t-111.5 313.5q0 150 45.5 286t131.5 242q83 102 203.5 163t263.5 61q193 0 307 -110t114 -316zM848 300q54 80 82.5 185t28.5 222q0 140 -67 212t-189 72q-97 0 -174 -46.5
t-133 -127.5q-54 -79 -83 -185t-29 -220q0 -138 67 -212t190 -74q96 0 174 46t133 128z" />
    <glyph glyph-name="afii10081" unicode="&#x43f;" horiz-adv-x="1305" 
d="M992 0h-190l224 967h-557l-224 -967h-190l258 1117h937z" />
    <glyph glyph-name="afii10082" unicode="&#x440;" horiz-adv-x="1276" 
d="M1191 764q0 -166 -51.5 -312t-136.5 -248q-86 -105 -200 -165.5t-243 -60.5q-90 0 -165.5 20.5t-137.5 59.5l-108 -470h-188l353 1529h188l-27 -117q93 65 183 106.5t199 41.5q163 0 248.5 -101t85.5 -283zM994 728q0 119 -52 183.5t-166 64.5q-83 0 -172 -41t-166 -93
l-146 -633q65 -35 124 -52t143 -17q103 0 185.5 50t136.5 130q57 84 85 187t28 221z" />
    <glyph glyph-name="afii10083" unicode="&#x441;" horiz-adv-x="1087" 
d="M540 -25q-106 0 -187.5 25t-142.5 79q-59 52 -91 131t-32 184q0 157 49 293t139 239q87 100 215 158.5t276 58.5q98 0 184.5 -27t152.5 -64l-41 -203h-11q-20 18 -50 42t-71 45q-41 22 -91 36.5t-114 14.5q-194 0 -316.5 -164t-122.5 -399q0 -141 72.5 -217t206.5 -76
q63 0 126 18t107 39q49 23 91 49t61 39h11l-40 -205q-87 -39 -184 -67.5t-197 -28.5z" />
    <glyph glyph-name="afii10084" unicode="&#x442;" horiz-adv-x="1016" 
d="M1099 967h-403l-221 -967h-190l221 967h-403l36 150h996z" />
    <glyph glyph-name="afii10085" unicode="&#x443;" horiz-adv-x="1210" 
d="M258 -412h-207l325 477l-202 1052h193l158 -831l534 831h205z" />
    <glyph glyph-name="afii10086" unicode="&#x444;" horiz-adv-x="1722" 
d="M1639 752q0 -159 -48 -300t-128 -243q-81 -104 -187 -164.5t-222 -60.5q-67 0 -122.5 22t-94.5 43l-107 -461h-188l107 461q-70 -35 -114 -50t-107 -15q-159 0 -251.5 108t-92.5 298q0 157 49 295t132 242q80 99 186.5 157t214.5 58q64 0 125 -21.5t95 -45.5l111 481h188
l-111 -481q52 27 108.5 47t119.5 20q161 0 249 -105.5t88 -284.5zM1440 716q0 124 -51 197.5t-158 73.5q-59 0 -94.5 -11t-92.5 -32l-176 -759q37 -20 84 -33.5t97 -13.5q91 0 164.5 49t122.5 128q52 83 78 184t26 217zM680 185l176 759q-35 19 -84 31t-98 12
q-90 0 -161.5 -46t-124.5 -126q-49 -75 -77 -181.5t-28 -214.5q0 -129 52.5 -205t160.5 -76q50 0 91.5 13t92.5 34z" />
    <glyph glyph-name="afii10087" unicode="&#x445;" horiz-adv-x="1212" 
d="M505 565l-312 552h211l230 -426l416 426h232l-571 -563l313 -554h-212l-231 428l-419 -428h-231z" />
    <glyph glyph-name="afii10088" unicode="&#x446;" horiz-adv-x="1320" 
d="M947 0h-892l258 1117h190l-224 -967h548l224 967h190l-224 -967h141l-96 -418h-177z" />
    <glyph glyph-name="afii10089" unicode="&#x447;" horiz-adv-x="1240" 
d="M927 0h-190l99 429q-91 -26 -176.5 -45t-178.5 -19q-138 0 -227 67.5t-89 190.5q0 26 4 56t9 54l89 384h190l-69 -301q-7 -28 -13 -67.5t-6 -64.5q0 -42 9 -71t33 -50q27 -23 60.5 -33t103.5 -10q61 0 137.5 13.5t155.5 35.5l127 548h190z" />
    <glyph glyph-name="afii10090" unicode="&#x448;" horiz-adv-x="1794" 
d="M1481 0h-1426l258 1117h190l-224 -967h428l224 967h190l-224 -967h428l224 967h190z" />
    <glyph glyph-name="afii10091" unicode="&#x449;" horiz-adv-x="1818" 
d="M1445 0h-1390l258 1117h190l-224 -967h428l224 967h190l-224 -967h428l224 967h190l-223 -967h140l-96 -418h-177z" />
    <glyph glyph-name="afii10092" unicode="&#x44a;" horiz-adv-x="1312" 
d="M987 391q0 34 -11.5 61.5t-39.5 46.5q-38 26 -88.5 31t-154.5 5h-172l-91 -393h186q101 0 157.5 9t100.5 34q54 30 83.5 84t29.5 122zM1185 418q0 -102 -50 -189.5t-129 -138.5q-73 -48 -153.5 -69t-198.5 -21h-446l224 967h-328l35 150h517l-102 -439h236
q126 0 193.5 -13t126.5 -64q38 -33 56.5 -80t18.5 -103z" />
    <glyph glyph-name="afii10093" unicode="&#x44b;" horiz-adv-x="1627" 
d="M834 391q0 34 -11.5 61.5t-39.5 46.5q-38 26 -88.5 31t-154.5 5h-172l-91 -393h186q101 0 157.5 9t100.5 34q54 30 83.5 84t29.5 122zM1032 418q0 -102 -50 -189.5t-129 -138.5q-73 -48 -153.5 -69t-198.5 -21h-446l258 1117h190l-102 -439h236q126 0 193.5 -13
t126.5 -64q38 -33 56.5 -80t18.5 -103zM1314 0h-190l258 1117h190z" />
    <glyph glyph-name="afii10094" unicode="&#x44c;" horiz-adv-x="1169" 
d="M844 391q0 34 -11.5 61.5t-39.5 46.5q-38 26 -88.5 31t-154.5 5h-182l-91 -393h196q101 0 157.5 9t100.5 34q54 30 83.5 84t29.5 122zM1042 418q0 -102 -50 -189.5t-129 -138.5q-73 -48 -153.5 -69t-198.5 -21h-456l258 1117h190l-102 -439h246q126 0 193.5 -13
t126.5 -64q38 -33 56.5 -80t18.5 -103z" />
    <glyph glyph-name="afii10095" unicode="&#x44d;" horiz-adv-x="1120" 
d="M1032 719q0 -164 -54 -302.5t-151 -237.5q-98 -100 -220.5 -152t-270.5 -52q-98 0 -196 23t-164 52l45 199h13q34 -36 129 -77t214 -41q167 0 283 102t160 286h-571l33 141h559q0 9 1 21.5t1 23.5q0 135 -74.5 208.5t-212.5 73.5q-60 0 -120 -13.5t-113 -33.5
q-53 -21 -92.5 -44.5t-63.5 -38.5h-13l46 203q89 34 185 58.5t193 24.5q207 0 330.5 -109t123.5 -315z" />
    <glyph glyph-name="afii10096" unicode="&#x44e;" horiz-adv-x="1718" 
d="M1433 707q0 141 -65.5 213t-185.5 72q-94 0 -169 -46t-131 -128q-51 -76 -80 -182.5t-29 -222.5q0 -139 65.5 -213.5t187.5 -74.5q96 0 172 48t127 126q52 81 80 184.5t28 223.5zM1630 722q0 -148 -44.5 -285.5t-128.5 -242.5t-201 -165t-258 -60q-195 0 -304.5 113
t-109.5 314q0 31 1 55t5 58h-227l-117 -509h-190l257 1117h190l-105 -458h222q31 105 87.5 195t131.5 155t170.5 102t204.5 37q188 0 302 -111t114 -315z" />
    <glyph glyph-name="afii10097" unicode="&#x44f;" horiz-adv-x="1228" 
d="M915 0h-190l103 447h-199l-448 -447h-243l486 467q-108 33 -163.5 97.5t-55.5 156.5q0 117 53 197.5t149 135.5q68 39 149 51t172 12h445zM861 586l89 389h-247q-74 0 -110 -5t-80 -28q-49 -24 -80.5 -80t-31.5 -126q0 -31 8.5 -54t27.5 -42q35 -33 83.5 -43.5
t115.5 -10.5h225z" />
    <glyph glyph-name="afii10071" unicode="&#x451;" horiz-adv-x="1220" 
d="M960 680q5 29 7 49t2 44q0 107 -58.5 167t-187.5 60q-142 0 -252 -88t-149 -232h638zM584 -26q-232 0 -364 109t-132 319q0 307 194 526.5t480 219.5q190 0 291 -94.5t101 -265.5q0 -30 -8.5 -95t-27.5 -151h-823q-6 -29 -8.5 -57t-2.5 -52q0 -141 86 -221.5t244 -80.5
q110 0 226.5 43t195.5 97h11l-41 -203q-50 -18 -90 -33t-102 -30t-110 -23t-120 -8zM1061 1304h-201l45 195h201zM646 1304h-201l45 195h201z" />
    <glyph glyph-name="afii10099" unicode="&#x452;" horiz-adv-x="1296" 
d="M686 -118q58 68 105.5 180.5t89.5 276.5q10 38 21 81.5t17 73.5q11 51 32 152t21 162q0 84 -39.5 127.5t-149.5 43.5q-76 0 -167 -43.5t-178 -101.5l-193 -834h-190l293 1272h-166l30 130h166l36 154h190l-36 -154h322l-30 -130h-322l-64 -279q105 74 198.5 114.5
t192.5 40.5q144 0 227 -72.5t83 -213.5q0 -58 -21.5 -162t-45.5 -207q-14 -61 -26.5 -112t-28.5 -113q-45 -183 -116.5 -311.5t-161.5 -208.5q-93 -81 -190.5 -116t-205.5 -35h-35t-54 2l37 158h68q92 0 163 28.5t128 96.5z" />
    <glyph glyph-name="afii10100" unicode="&#x453;" horiz-adv-x="965" 
d="M1050 967h-581l-224 -967h-190l258 1117h771zM1109 1676l-355 -374h-156l254 374h257z" />
    <glyph glyph-name="afii10101" unicode="&#x454;" horiz-adv-x="1120" 
d="M938 48q-89 -34 -178 -53.5t-198 -19.5q-226 0 -350.5 112.5t-124.5 319.5q0 166 54.5 302.5t152.5 234.5q95 96 223.5 147.5t272.5 51.5q104 0 193.5 -27t152.5 -59l-39 -198h-12q-74 64 -163 96t-174 32q-141 0 -262 -81.5t-175 -245.5h580l-27 -141h-580
q-2 -18 -3 -39.5t-1 -43.5q0 -150 78.5 -227.5t222.5 -77.5q107 0 209.5 33.5t174.5 84.5h12z" />
    <glyph glyph-name="afii10102" unicode="&#x455;" horiz-adv-x="1067" 
d="M405 -27q-125 0 -223.5 31t-164.5 67l42 201h10q21 -18 54.5 -42.5t85.5 -48.5q47 -23 107.5 -39.5t129.5 -16.5q141 0 221 52t80 153q0 53 -41 81.5t-118 46.5q-39 9 -93.5 20t-110.5 26q-117 33 -173 95.5t-56 152.5q0 78 34 146t101 125q64 54 163 87.5t220 33.5
q100 0 199.5 -25t162.5 -62l-40 -192h-10q-16 13 -48.5 35t-82.5 45q-43 19 -100.5 33t-119.5 14q-125 0 -203 -52.5t-78 -143.5q0 -50 38 -83.5t116 -52.5q49 -12 102.5 -22.5t103.5 -22.5q116 -29 174.5 -90t58.5 -153q0 -77 -36.5 -150.5t-105.5 -127.5q-71 -57 -172 -89
t-227 -32z" />
    <glyph glyph-name="afii10103" unicode="&#x456;" horiz-adv-x="562" 
d="M604 1499l-45 -195h-212l45 195h212zM504 1117l-258 -1117h-188l258 1117h188z" />
    <glyph glyph-name="afii10104" unicode="&#x457;" horiz-adv-x="562" 
d="M505 1117l-258 -1117h-190l258 1117h190zM744 1499l-45 -195h-189l45 195h189zM381 1499l-45 -195h-189l45 195h189z" />
    <glyph glyph-name="afii10105" unicode="&#x458;" horiz-adv-x="705" 
d="M707 1304h-214l45 195h214zM387 -27q-45 -194 -159.5 -295t-284.5 -101q-40 0 -105 8t-107 20l39 171h10q29 -13 68.5 -25.5t91.5 -12.5q70 0 117.5 21.5t77.5 64.5q29 42 48 104.5t34 130.5l209 907h-233l35 151h423z" />
    <glyph glyph-name="afii10106" unicode="&#x459;" horiz-adv-x="1872" 
d="M1548 391q0 34 -11.5 61.5t-39.5 46.5q-38 26 -88.5 31t-154.5 5h-172l-91 -393h186q101 0 157.5 9t100.5 34q54 30 83.5 84t29.5 122zM1746 418q0 -102 -50 -189.5t-129 -138.5q-73 -48 -153.5 -69t-198.5 -21h-446l223 967h-415q-22 -92 -40.5 -168t-35.5 -140
q-34 -135 -66 -228t-60 -149q-33 -67 -62 -108.5t-56 -69.5q-63 -67 -122.5 -86.5t-124.5 -19.5q-17 0 -51.5 1t-44.5 1l38 164h10q7 0 22 -1t25 -1q22 0 52 8.5t49 24.5q59 49 116.5 170t115.5 343q19 73 48 191.5t52 217.5h774l-101 -439h236q126 0 193.5 -13t126.5 -64
q38 -33 56.5 -80t18.5 -103z" />
    <glyph glyph-name="afii10107" unicode="&#x45a;" horiz-adv-x="1872" 
d="M1547 391q0 34 -11.5 61.5t-39.5 46.5q-38 26 -88.5 31t-154.5 5h-172l-91 -393h186q101 0 157.5 9t100.5 34q54 30 83.5 84t29.5 122zM1745 418q0 -102 -50 -189.5t-129 -138.5q-73 -48 -153.5 -69t-198.5 -21h-446l124 535h-523l-124 -535h-190l258 1117h190l-102 -439
h524l101 439h190l-102 -439h236q126 0 193.5 -13t126.5 -64q38 -33 56.5 -80t18.5 -103z" />
    <glyph glyph-name="afii10108" unicode="&#x45b;" horiz-adv-x="1296" 
d="M1175 862q0 -24 -4.5 -65t-12.5 -72l-168 -725h-188l147 636q12 53 18.5 92.5t6.5 78.5q0 84 -41.5 126.5t-149.5 42.5q-76 0 -167.5 -42t-178.5 -100l-193 -834h-188l294 1272h-168l30 130h168l35 154h188l-35 -154h322l-30 -130h-322l-65 -279q107 75 200.5 115
t192.5 40q146 0 227.5 -73.5t81.5 -212.5z" />
    <glyph glyph-name="afii10109" unicode="&#x45c;" horiz-adv-x="1212" 
d="M1082 0h-228l-374 516h-108l-119 -516h-190l258 1117h190l-112 -485q78 0 143 29t130 116q20 26 41 58.5t39 59.5q66 98 153.5 160t259.5 62h86l-36 -158h-78q-78 0 -132.5 -37.5t-108.5 -119.5q-61 -92 -123 -143.5t-123 -76.5zM1172 1676l-355 -374h-156l254 374h257z
" />
    <glyph glyph-name="uni045D" unicode="&#x45d;" horiz-adv-x="1311" 
d="M998 0h-188l195 839l-777 -839h-173l258 1117h188l-190 -821l766 821h179zM930 1302h-145l-197 374h236z" />
    <glyph glyph-name="afii10110" unicode="&#x45e;" horiz-adv-x="1210" 
d="M258 -412h-207l325 477l-202 1052h193l158 -831l534 831h205zM1106 1557q-33 -150 -138.5 -232t-271.5 -82q-150 0 -224 66.5t-74 176.5q0 20 1.5 35.5t4.5 35.5h168q-3 -14 -5 -32.5t-2 -34.5q0 -70 37.5 -104t110.5 -34q88 0 142.5 49.5t76.5 155.5h174z" />
    <glyph glyph-name="afii10193" unicode="&#x45f;" horiz-adv-x="1305" 
d="M440 0h-385l258 1117h190l-224 -967h557l224 967h190l-258 -1117h-376l-62 -268h-176z" />
    <glyph glyph-name="afii10050" unicode="&#x490;" horiz-adv-x="1160" 
d="M1339 1320h-763l-306 -1320h-200l344 1489h778l94 410h186z" />
    <glyph glyph-name="afii10098" unicode="&#x491;" horiz-adv-x="965" 
d="M1050 967h-581l-224 -967h-190l258 1117h597l85 369h174z" />
    <glyph glyph-name="uni0492" unicode="&#x492;" horiz-adv-x="1160" 
d="M1378 1489l-39 -169h-764l-102 -441h360l-31 -135h-360l-172 -744h-200l172 744h-184l31 135h184l141 610h964z" />
    <glyph glyph-name="uni0493" unicode="&#x493;" horiz-adv-x="965" 
d="M1084 1117l-34 -150h-581l-86 -370h326l-30 -134h-327l-107 -463h-190l107 463h-158l30 134h159l120 520h771z" />
    <glyph glyph-name="uni0496" unicode="&#x496;" horiz-adv-x="1993" 
d="M2118 1489l-40 -172h-59q-108 0 -174 -56q-53 -45 -125 -176q-131 -239 -313 -321l339 -597h144l-116 -504h-190l78 337h-45l-388 684h-106l-158 -684h-197l158 684h-98l-665 -684h-252l764 781q-133 97 -149 304q-5 65 -11 93q-11 54 -36 85q-44 54 -164 54h-55l40 172
h67q164 0 240 -68.5t95 -231.5l9 -77q6 -52 11 -77q36 -199 234 -218l155 672h197l-156 -674q192 18 320 221q16 24 48 77q15 27 44 77q93 160 195 227q111 72 287 72h72z" />
    <glyph glyph-name="uni0497" unicode="&#x497;" horiz-adv-x="1634" 
d="M1683 1117l-38 -162h-53q-126 0 -212 -156q-84 -151 -215 -213l245 -436h139l-96 -418h-177l62 268h-57l-278 514h-91l-117 -514h-188l119 514h-86l-476 -514h-228l561 593q-80 60 -96 208q-5 51 -8 63q-7 33 -27 56q-33 38 -121 38h-53l37 159h64q125 0 187 -49
q66 -52 81 -174q7 -62 18 -116q27 -140 174 -148l112 487h188l-114 -487q141 11 231 148q36 59 72 117q43 70 81 110q81 85 180 103q49 9 111 9h69z" />
    <glyph glyph-name="uni049A" unicode="&#x49a;" horiz-adv-x="1419" 
d="M1526 1489l-40 -172h-90q-114 0 -188 -71q-35 -34 -68 -86l-60 -95q-74 -117 -136 -178q-77 -76 -185 -124l411 -596h155l-116 -504h-190l78 337h-51l-466 679h-148l-157 -679h-200l343 1489h200l-153 -668q112 2 188 42q100 52 186 172q13 18 101 154q107 166 204 228
q110 72 293 72h89z" />
    <glyph glyph-name="uni049B" unicode="&#x49b;" horiz-adv-x="1212" 
d="M1251 1117l-36 -158h-78q-137 0 -241 -157q-108 -163 -246 -220l321 -432h148l-96 -418h-177l62 268h-54l-374 516h-108l-119 -516h-190l258 1117h190l-112 -485q111 0 187 56q60 44 127 148q16 25 39 59q81 121 174 171.5t239 50.5h86z" />
    <glyph glyph-name="uni049C" unicode="&#x49c;" horiz-adv-x="1419" 
d="M1526 1489l-40 -172h-90q-114 0 -188 -71q-35 -34 -68 -86l-60 -95q-74 -117 -136 -178q-77 -76 -185 -124l526 -763h-239l-397 578l-64 -278h-134l88 379h-107l-157 -679h-200l343 1489h200l-153 -668q43 1 110 13l83 362h134l-65 -284q74 60 161 195q17 27 52 82
q107 166 204 228q110 72 293 72h89z" />
    <glyph glyph-name="uni049D" unicode="&#x49d;" horiz-adv-x="1212" 
d="M1251 1117l-36 -158h-78q-137 0 -241 -157q-108 -163 -246 -220l432 -582h-228l-274 378l-55 -238h-134l87 376h-106l-119 -516h-190l258 1117h190l-112 -485q60 0 110 16l80 348h134l-50 -218q31 40 79 117q81 121 174 171.5t239 50.5h86z" />
    <glyph glyph-name="uni04A2" unicode="&#x4a2;" horiz-adv-x="1539" 
d="M1553 1489l-305 -1322h146l-116 -504h-190l78 337h-154l169 732h-743l-169 -732h-198l343 1489h198l-135 -589h743l135 589h198z" />
    <glyph glyph-name="uni04A3" unicode="&#x4a3;" horiz-adv-x="1305" 
d="M1250 1117l-223 -967h139l-96 -418h-177l62 268h-153l117 507h-557l-117 -507h-190l258 1117h190l-106 -460h557l106 460h190z" />
    <glyph glyph-name="uni04AE" unicode="&#x4ae;" horiz-adv-x="1260" 
d="M1463 1489l-713 -836l-151 -653h-200l146 632l-332 857h212l258 -669l563 669h217z" />
    <glyph glyph-name="uni04AF" unicode="&#x4af;" horiz-adv-x="1210" 
d="M1270 1117l-702 -1058l-106 -471h-191l109 471l-206 1058h194l156 -838l538 838h208z" />
    <glyph glyph-name="uni04B0" unicode="&#x4b0;" horiz-adv-x="1260" 
d="M1463 1489l-713 -836l-21 -92h365l-30 -132h-366l-99 -429h-200l99 429h-362l30 132h363l16 71l-332 857h212l258 -669l563 669h217z" />
    <glyph glyph-name="uni04B1" unicode="&#x4b1;" horiz-adv-x="1210" 
d="M1270 1117l-702 -1058h384l-30 -132h-384l-76 -339h-191l78 339h-355l30 132h356l-206 1058h194l156 -838l538 838h208z" />
    <glyph glyph-name="uni04B2" unicode="&#x4b2;" horiz-adv-x="1403" 
d="M1552 1489l-695 -742l270 -580h143l-116 -504h-190l78 337h-54l-273 602l-555 -602h-222l702 749l-344 740h216l270 -595l547 595h223z" />
    <glyph glyph-name="uni04B3" unicode="&#x4b3;" horiz-adv-x="1212" 
d="M1282 1117l-571 -563l228 -404h138l-96 -418h-177l62 268h-54l-231 428l-419 -428h-231l574 565l-312 552h211l230 -426l416 426h232z" />
    <glyph glyph-name="uni04B8" unicode="&#x4b8;" horiz-adv-x="1458" 
d="M1473 1489l-343 -1489h-200l146 633q-101 -31 -306 -77l-67 -292h-134l65 282h-16q-169 -1 -274 74q-119 85 -119 248q0 63 16 132l113 489h200l-94 -408q-22 -95 -22 -163q0 -191 237 -197l90 391h134l-89 -385q53 6 109 17q113 23 195 52l159 693h200z" />
    <glyph glyph-name="uni04B9" unicode="&#x4b9;" horiz-adv-x="1240" 
d="M1185 1117l-258 -1117h-190l99 429q-130 -37 -207 -51l-45 -198h-134l42 185h-11q-132 -1 -219 61q-97 70 -97 197q0 54 13 110l89 384h190l-69 -301q-19 -83 -19 -132q0 -85 42 -121q26 -23 61 -33q23 -7 56 -9l73 314h134l-71 -309q91 11 204 43l127 548h190z" />
    <glyph glyph-name="uni04BA" unicode="&#x4ba;" horiz-adv-x="1458" 
d="M1320 621q0 -63 -16 -132l-113 -489h-200l94 408q22 95 22 163q0 197 -255 197q-209 0 -421 -75l-159 -693h-200l343 1489h200l-146 -633q282 87 458 87q171 0 275 -74q118 -84 118 -248z" />
    <glyph glyph-name="uni04BB" unicode="&#x4bb;" horiz-adv-x="1296" 
d="M1175 862q0 -24 -4.5 -65t-12.5 -72l-168 -725h-188l147 636q12 53 18.5 92.5t6.5 78.5q0 84 -41.5 126.5t-149.5 42.5q-76 0 -167.5 -42t-178.5 -100l-193 -834h-188l359 1556h188l-130 -563q107 75 200.5 115t192.5 40q146 0 227.5 -73.5t81.5 -212.5z" />
    <glyph glyph-name="uni04D8" unicode="&#x4d8;" horiz-adv-x="1549" 
d="M1500 972q0 -392 -230 -686q-248 -317 -626 -317q-253 0 -385 143q-125 137 -125 388q0 154 55 392h1102q4 38 4 76q0 164 -90 265q-97 111 -273 111q-264 0 -498 -140h-17l51 220q234 92 501 92q252 0 394 -150q137 -146 137 -394zM1259 713h-905q-21 -102 -21 -200
q0 -373 332 -373q229 0 393 179q139 153 201 394z" />
    <glyph glyph-name="uni04D9" unicode="&#x4d9;" horiz-adv-x="1220" 
d="M1132 720q0 -300 -185 -517q-194 -229 -489 -229q-182 0 -284 88q-108 94 -108 272q0 76 32 227q2 9 4 19h823q11 53 11 109q0 149 -92 228q-87 74 -238 74q-217 0 -422 -140h-11l41 203q62 23 192 63q128 31 230 31q224 0 353 -100q143 -111 143 -328zM898 442h-638
q-9 -52 -9 -93q0 -227 246 -227q145 0 254 89t147 231z" />
    <glyph glyph-name="uni04E8" unicode="&#x4e8;" horiz-adv-x="1612" 
d="M1563 962q0 -409 -228 -691q-244 -302 -635 -302q-267 0 -416.5 146t-149.5 413q0 412 233 697q241 295 629 295q268 0 417.5 -145t149.5 -413zM1354 934q0 197 -95 306q-101 117 -294 117q-278 0 -456 -243q-86 -117 -130 -282h971q4 48 4 102zM1322 664h-974
q-5 -51 -5 -105q0 -196 96 -308q101 -119 294 -119q276 0 451 238q96 131 138 294z" />
    <glyph glyph-name="uni04E9" unicode="&#x4e9;" horiz-adv-x="1243" 
d="M1154 722q0 -314 -176 -528q-185 -225 -467 -225q-199 0 -310.5 114t-111.5 313q0 310 177 528q182 224 467 224q200 0 310.5 -113t110.5 -313zM959 707q0 284 -256 284q-187 0 -307 -174q-54 -79 -84 -190h644q3 34 3 80zM932 489h-645q-3 -34 -3 -77q0 -286 257 -286
q190 0 307 174q55 82 84 189z" />
    <glyph glyph-name="uni0564" unicode="&#x564;" horiz-adv-x="1296" 
d="M1418 91l-21 -91h-409l-58 -246q-6 -25 -6 -45q0 -30 39 -30h175l-21 -91h-305q-90 0 -90 70q0 22 15 84l295 1227l-585 -93l-203 -876h-188l258 1117h188l-29 -124l777 124l-241 -1026h409z" />
    <glyph glyph-name="uni0580" unicode="&#x580;" horiz-adv-x="1296" 
d="M1250 1117l-260 -1117h-188l230 969l-585 -93l-260 -1122q-6 -26 -6 -45q0 -30 39 -30h175l-21 -91h-302q-90 0 -90 70q0 19 15 84l317 1375h188l-29 -124z" />
    <glyph glyph-name="uni0E3F" unicode="&#xe3f;" horiz-adv-x="1404" 
d="M1339 1224q0 -266 -275 -381v-8q247 -56 247 -291q0 -125 -62.5 -239t-167.5 -185q-165 -112 -417 -119l-46 -201h-174l46 200h-420l343 1489h421l46 200h174l-47 -204q46 -3 77 -7q168 -23 228 -137q27 -52 27 -117zM1124 1169q0 78 -54 115q-40 27 -101 35l-98 -424
q163 30 220 145q33 67 33 129zM796 1327h-220l-102 -442h220zM1102 530q0 101 -87 155q-41 25 -102 33q-30 4 -82 6l-129 -558q153 10 239 62q161 97 161 302zM658 726h-220l-131 -564h221z" />
    <glyph glyph-name="Wgrave" unicode="&#x1e80;" horiz-adv-x="2028" 
d="M2138 1489l-715 -1489h-229l-44 1233l-578 -1233h-220l-61 1489h201l40 -1236l583 1236h201l40 -1248l587 1248h195zM1353 1675h-145l-197 374h236z" />
    <glyph glyph-name="wgrave" unicode="&#x1e81;" horiz-adv-x="1676" 
d="M1705 1117l-519 -1117h-176l-112 863l-461 -863h-174l-70 1117h192l29 -864l456 864h157l109 -864l372 864h197zM1072 1302h-145l-197 374h236z" />
    <glyph glyph-name="Wacute" unicode="&#x1e82;" horiz-adv-x="2028" 
d="M2138 1489l-715 -1489h-229l-44 1233l-578 -1233h-220l-61 1489h201l40 -1236l583 1236h201l40 -1248l587 1248h195zM1597 2049l-355 -374h-156l254 374h257z" />
    <glyph glyph-name="wacute" unicode="&#x1e83;" horiz-adv-x="1676" 
d="M1705 1117l-519 -1117h-176l-112 863l-461 -863h-174l-70 1117h192l29 -864l456 864h157l109 -864l372 864h197zM1334 1676l-355 -374h-156l254 374h257z" />
    <glyph glyph-name="Wdieresis" unicode="&#x1e84;" horiz-adv-x="2028" 
d="M2138 1489l-715 -1489h-229l-44 1233l-578 -1233h-220l-61 1489h201l40 -1236l583 1236h201l40 -1248l587 1248h195zM1537 1677h-201l45 195h201zM1122 1677h-201l45 195h201z" />
    <glyph glyph-name="wdieresis" unicode="&#x1e85;" horiz-adv-x="1676" 
d="M1705 1117l-519 -1117h-176l-112 863l-461 -863h-174l-70 1117h192l29 -864l456 864h157l109 -864l372 864h197zM1265 1304h-201l45 195h201zM850 1304h-201l45 195h201z" />
    <glyph glyph-name="Adotbelow" unicode="&#x1ea0;" horiz-adv-x="1398" 
d="M1261 0h-201l-50 419h-642l-244 -419h-209l886 1489h262zM988 581l-93 735l-432 -735h525zM682 -382h-214l45 195h214z" />
    <glyph glyph-name="adotbelow" unicode="&#x1ea1;" horiz-adv-x="1230" 
d="M874 589q-154 -6 -273.5 -23.5t-197.5 -50.5q-81 -33 -123 -89.5t-42 -140.5q0 -72 49 -110t152 -38q91 0 185.5 40.5t176.5 97.5zM765 119q-27 -16 -73.5 -45.5t-94.5 -50.5q-51 -23 -114 -38.5t-145 -15.5q-133 0 -216 77.5t-83 202.5q0 133 58.5 224.5t173.5 149.5
q113 57 272.5 82.5t363.5 31.5q6 28 10 48.5t4 42.5q0 48 -19 78t-54 48t-81.5 24.5t-102.5 6.5q-85 0 -194 -27.5t-177 -54.5h-10l37 188q57 15 167 34t211 19q208 0 312 -65t104 -206q0 -27 -4.5 -57.5t-10.5 -57.5l-175 -758h-187zM572 -382h-214l45 195h214z" />
    <glyph glyph-name="Ahookabove" unicode="&#x1ea2;" horiz-adv-x="1398" 
d="M1261 0h-201l-50 419h-642l-244 -419h-209l886 1489h262zM988 581l-93 735l-432 -735h525zM1212 1927q0 -69 -44 -115.5t-130 -73.5l-16 -68h-110l28 121q65 16 91 41.5t26 59.5q0 22 -16 37t-44 15q-27 0 -48.5 -5t-44.5 -13h-3l24 105q20 6 53.5 12t71.5 6
q80 0 121 -36.5t41 -85.5z" />
    <glyph glyph-name="ahookabove" unicode="&#x1ea3;" horiz-adv-x="1230" 
d="M874 589q-154 -6 -273.5 -23.5t-197.5 -50.5q-81 -33 -123 -89.5t-42 -140.5q0 -72 49 -110t152 -38q91 0 185.5 40.5t176.5 97.5zM765 119q-27 -16 -73.5 -45.5t-94.5 -50.5q-51 -23 -114 -38.5t-145 -15.5q-133 0 -216 77.5t-83 202.5q0 133 58.5 224.5t173.5 149.5
q113 57 272.5 82.5t363.5 31.5q6 28 10 48.5t4 42.5q0 48 -19 78t-54 48t-81.5 24.5t-102.5 6.5q-85 0 -194 -27.5t-177 -54.5h-10l37 188q57 15 167 34t211 19q208 0 312 -65t104 -206q0 -27 -4.5 -57.5t-10.5 -57.5l-175 -758h-187zM973 1554q0 -69 -44 -115.5t-130 -73.5
l-16 -68h-110l28 121q65 16 91 41.5t26 59.5q0 22 -16 37t-44 15q-27 0 -48.5 -5t-44.5 -13h-3l24 105q20 6 53.5 12t71.5 6q80 0 121 -36.5t41 -85.5z" />
    <glyph glyph-name="Acircumflexacute" unicode="&#x1ea4;" horiz-adv-x="1398" 
d="M1261 0h-201l-50 419h-642l-244 -419h-209l886 1489h262zM988 581l-93 735l-432 -735h525zM1264 1650h-152l-130 260l-241 -260h-162l311 379h228zM1681 2029l-280 -266h-134l186 266h228z" />
    <glyph glyph-name="acircumflexacute" unicode="&#x1ea5;" horiz-adv-x="1230" 
d="M874 589q-154 -6 -273.5 -23.5t-197.5 -50.5q-81 -33 -123 -89.5t-42 -140.5q0 -72 49 -110t152 -38q91 0 185.5 40.5t176.5 97.5zM765 119q-27 -16 -73.5 -45.5t-94.5 -50.5q-51 -23 -114 -38.5t-145 -15.5q-133 0 -216 77.5t-83 202.5q0 133 58.5 224.5t173.5 149.5
q113 57 272.5 82.5t363.5 31.5q6 28 10 48.5t4 42.5q0 48 -19 78t-54 48t-81.5 24.5t-102.5 6.5q-85 0 -194 -27.5t-177 -54.5h-10l37 188q57 15 167 34t211 19q208 0 312 -65t104 -206q0 -27 -4.5 -57.5t-10.5 -57.5l-175 -758h-187zM1088 1297h-152l-130 260l-241 -260
h-162l311 379h228zM1505 1676l-280 -266h-134l186 266h228z" />
    <glyph glyph-name="Acircumflexgrave" unicode="&#x1ea6;" horiz-adv-x="1398" 
d="M1261 0h-201l-50 419h-642l-244 -419h-209l886 1489h262zM988 581l-93 735l-432 -735h525zM1264 1650h-152l-130 260l-241 -260h-162l311 379h228zM616 1763h-125l-198 266h219z" />
    <glyph glyph-name="acircumflexgrave" unicode="&#x1ea7;" horiz-adv-x="1230" 
d="M874 589q-154 -6 -273.5 -23.5t-197.5 -50.5q-81 -33 -123 -89.5t-42 -140.5q0 -72 49 -110t152 -38q91 0 185.5 40.5t176.5 97.5zM765 119q-27 -16 -73.5 -45.5t-94.5 -50.5q-51 -23 -114 -38.5t-145 -15.5q-133 0 -216 77.5t-83 202.5q0 133 58.5 224.5t173.5 149.5
q113 57 272.5 82.5t363.5 31.5q6 28 10 48.5t4 42.5q0 48 -19 78t-54 48t-81.5 24.5t-102.5 6.5q-85 0 -194 -27.5t-177 -54.5h-10l37 188q57 15 167 34t211 19q208 0 312 -65t104 -206q0 -27 -4.5 -57.5t-10.5 -57.5l-175 -758h-187zM1088 1297h-152l-130 260l-241 -260
h-162l311 379h228zM440 1410h-125l-198 266h219z" />
    <glyph glyph-name="Acircumflexhookabove" unicode="&#x1ea8;" horiz-adv-x="1398" 
d="M1261 0h-201l-50 419h-642l-244 -419h-209l886 1489h262zM988 581l-93 735l-432 -735h525zM1265 1639h-152l-148 211l-223 -211h-162l293 330h228zM1631 1927q0 -69 -44 -115.5t-130 -73.5l-16 -68h-110l28 121q65 16 91 41.5t26 59.5q0 22 -16 37t-44 15q-27 0 -48.5 -5
t-44.5 -13h-3l24 105q20 6 53.5 12t71.5 6q80 0 121 -36.5t41 -85.5z" />
    <glyph glyph-name="acircumflexhookabove" unicode="&#x1ea9;" horiz-adv-x="1230" 
d="M874 589q-154 -6 -273.5 -23.5t-197.5 -50.5q-81 -33 -123 -89.5t-42 -140.5q0 -72 49 -110t152 -38q91 0 185.5 40.5t176.5 97.5zM765 119q-27 -16 -73.5 -45.5t-94.5 -50.5q-51 -23 -114 -38.5t-145 -15.5q-133 0 -216 77.5t-83 202.5q0 133 58.5 224.5t173.5 149.5
q113 57 272.5 82.5t363.5 31.5q6 28 10 48.5t4 42.5q0 48 -19 78t-54 48t-81.5 24.5t-102.5 6.5q-85 0 -194 -27.5t-177 -54.5h-10l37 188q57 15 167 34t211 19q208 0 312 -65t104 -206q0 -27 -4.5 -57.5t-10.5 -57.5l-175 -758h-187zM1088 1297h-152l-130 260l-241 -260
h-162l311 379h228zM1377 1752q0 -69 -44 -115.5t-130 -73.5l-16 -68h-110l28 121q65 16 91 41.5t26 59.5q0 22 -16 37t-44 15q-27 0 -48.5 -5t-44.5 -13h-3l24 105q20 6 53.5 12t71.5 6q80 0 121 -36.5t41 -85.5z" />
    <glyph glyph-name="Acircumflextilde" unicode="&#x1eaa;" horiz-adv-x="1398" 
d="M1261 0h-201l-50 419h-642l-244 -419h-209l886 1489h262zM988 581l-93 735l-432 -735h525zM1281 1620h-169l-165 89l-184 -89h-165l267 173h187zM1315 2049q-20 -82 -81.5 -135.5t-141.5 -53.5q-37 0 -72.5 12.5t-61.5 25.5t-55.5 26t-49.5 13q-29 0 -51 -16t-32 -61
h-134q18 78 79.5 133.5t143.5 55.5q39 0 71 -12t63 -27q33 -16 55.5 -27t48.5 -11q27 0 50.5 17.5t33.5 59.5h134z" />
    <glyph glyph-name="acircumflextilde" unicode="&#x1eab;" horiz-adv-x="1230" 
d="M874 589q-154 -6 -273.5 -23.5t-197.5 -50.5q-81 -33 -123 -89.5t-42 -140.5q0 -72 49 -110t152 -38q91 0 185.5 40.5t176.5 97.5zM765 119q-27 -16 -73.5 -45.5t-94.5 -50.5q-51 -23 -114 -38.5t-145 -15.5q-133 0 -216 77.5t-83 202.5q0 133 58.5 224.5t173.5 149.5
q113 57 272.5 82.5t363.5 31.5q6 28 10 48.5t4 42.5q0 48 -19 78t-54 48t-81.5 24.5t-102.5 6.5q-85 0 -194 -27.5t-177 -54.5h-10l37 188q57 15 167 34t211 19q208 0 312 -65t104 -206q0 -27 -4.5 -57.5t-10.5 -57.5l-175 -758h-187zM1088 1297h-152l-130 260l-241 -260
h-162l311 379h228zM1244 2014q-21 -137 -95.5 -209t-169.5 -72q-53 0 -87 20.5t-60 45.5q-22 21 -48.5 44t-51.5 23q-43 0 -63 -31t-33 -102h-140q20 136 95 208.5t170 72.5q54 0 88 -21t60 -46q20 -19 47 -42.5t52 -23.5q42 0 63 31t33 102h140z" />
    <glyph glyph-name="Acircumflexdotbelow" unicode="&#x1eac;" horiz-adv-x="1398" 
d="M1261 0h-201l-50 419h-642l-244 -419h-209l886 1489h262zM988 581l-93 735l-432 -735h525zM1264 1650h-152l-130 260l-241 -260h-162l311 379h228zM682 -382h-214l45 195h214z" />
    <glyph glyph-name="acircumflexdotbelow" unicode="&#x1ead;" horiz-adv-x="1230" 
d="M874 589q-154 -6 -273.5 -23.5t-197.5 -50.5q-81 -33 -123 -89.5t-42 -140.5q0 -72 49 -110t152 -38q91 0 185.5 40.5t176.5 97.5zM765 119q-27 -16 -73.5 -45.5t-94.5 -50.5q-51 -23 -114 -38.5t-145 -15.5q-133 0 -216 77.5t-83 202.5q0 133 58.5 224.5t173.5 149.5
q113 57 272.5 82.5t363.5 31.5q6 28 10 48.5t4 42.5q0 48 -19 78t-54 48t-81.5 24.5t-102.5 6.5q-85 0 -194 -27.5t-177 -54.5h-10l37 188q57 15 167 34t211 19q208 0 312 -65t104 -206q0 -27 -4.5 -57.5t-10.5 -57.5l-175 -758h-187zM1088 1297h-152l-130 260l-241 -260
h-162l311 379h228zM572 -382h-214l45 195h214z" />
    <glyph glyph-name="Abreveacute" unicode="&#x1eae;" horiz-adv-x="1398" 
d="M1261 0h-201l-50 419h-642l-244 -419h-209l886 1489h262zM988 581l-93 735l-432 -735h525zM1330 1848q-36 -88 -134.5 -164t-246.5 -76q-134 0 -206.5 61.5t-72.5 148.5q0 7 0.5 15t0.5 15h162q0 -6 -1 -14t-1 -14q0 -50 33 -79t95 -29q80 0 138.5 44.5t70.5 91.5h162z
M1278 2049l-230 -216h-129l136 216h223z" />
    <glyph glyph-name="abreveacute" unicode="&#x1eaf;" horiz-adv-x="1230" 
d="M874 589q-154 -6 -273.5 -23.5t-197.5 -50.5q-81 -33 -123 -89.5t-42 -140.5q0 -72 49 -110t152 -38q91 0 185.5 40.5t176.5 97.5zM765 119q-27 -16 -73.5 -45.5t-94.5 -50.5q-51 -23 -114 -38.5t-145 -15.5q-133 0 -216 77.5t-83 202.5q0 133 58.5 224.5t173.5 149.5
q113 57 272.5 82.5t363.5 31.5q6 28 10 48.5t4 42.5q0 48 -19 78t-54 48t-81.5 24.5t-102.5 6.5q-85 0 -194 -27.5t-177 -54.5h-10l37 188q57 15 167 34t211 19q208 0 312 -65t104 -206q0 -27 -4.5 -57.5t-10.5 -57.5l-175 -758h-187zM1156 1606q-45 -170 -151 -260.5
t-277 -90.5q-130 0 -219 75t-89 205q0 19 1.5 34.5t3.5 36.5h166q-2 -18 -2.5 -33.5t-0.5 -26.5q0 -92 42 -127t122 -35q85 0 144 50.5t92 171.5h168zM1080 1787l-280 -266h-134l186 266h228z" />
    <glyph glyph-name="Abrevegrave" unicode="&#x1eb0;" horiz-adv-x="1398" 
d="M1261 0h-201l-50 419h-642l-244 -419h-209l886 1489h262zM988 581l-93 735l-432 -735h525zM1330 1848q-36 -88 -134.5 -164t-246.5 -76q-134 0 -206.5 61.5t-72.5 148.5q0 7 0.5 15t0.5 15h162q0 -6 -1 -14t-1 -14q0 -50 33 -79t95 -29q80 0 138.5 44.5t70.5 91.5h162z
M1067 1833h-129l-176 216h223z" />
    <glyph glyph-name="abrevegrave" unicode="&#x1eb1;" horiz-adv-x="1230" 
d="M874 589q-154 -6 -273.5 -23.5t-197.5 -50.5q-81 -33 -123 -89.5t-42 -140.5q0 -72 49 -110t152 -38q91 0 185.5 40.5t176.5 97.5zM765 119q-27 -16 -73.5 -45.5t-94.5 -50.5q-51 -23 -114 -38.5t-145 -15.5q-133 0 -216 77.5t-83 202.5q0 133 58.5 224.5t173.5 149.5
q113 57 272.5 82.5t363.5 31.5q6 28 10 48.5t4 42.5q0 48 -19 78t-54 48t-81.5 24.5t-102.5 6.5q-85 0 -194 -27.5t-177 -54.5h-10l37 188q57 15 167 34t211 19q208 0 312 -65t104 -206q0 -27 -4.5 -57.5t-10.5 -57.5l-175 -758h-187zM1156 1606q-45 -170 -151 -260.5
t-277 -90.5q-130 0 -219 75t-89 205q0 19 1.5 34.5t3.5 36.5h166q-2 -18 -2.5 -33.5t-0.5 -26.5q0 -92 42 -127t122 -35q85 0 144 50.5t92 171.5h168zM865 1521h-125l-198 266h219z" />
    <glyph glyph-name="Abrevehookabove" unicode="&#x1eb2;" horiz-adv-x="1398" 
d="M1261 0h-201l-50 419h-642l-244 -419h-209l886 1489h262zM988 581l-93 735l-432 -735h525zM1330 1848q-36 -88 -134.5 -164t-246.5 -76q-134 0 -206.5 61.5t-72.5 148.5q0 7 0.5 15t0.5 15h162q0 -6 -1 -14t-1 -14q0 -50 33 -79t95 -29q80 0 138.5 44.5t70.5 91.5h162z
M1145 1958q0 -50 -36.5 -81t-87.5 -46l-10 -47h-77l19 84q37 9 61 28t24 43q0 20 -11 28.5t-32 8.5q-25 0 -39 -4t-29 -9h-2l17 73q15 5 41 9t53 4q53 0 81 -22t28 -69z" />
    <glyph glyph-name="abrevehookabove" unicode="&#x1eb3;" horiz-adv-x="1230" 
d="M874 589q-154 -6 -273.5 -23.5t-197.5 -50.5q-81 -33 -123 -89.5t-42 -140.5q0 -72 49 -110t152 -38q91 0 185.5 40.5t176.5 97.5zM765 119q-27 -16 -73.5 -45.5t-94.5 -50.5q-51 -23 -114 -38.5t-145 -15.5q-133 0 -216 77.5t-83 202.5q0 133 58.5 224.5t173.5 149.5
q113 57 272.5 82.5t363.5 31.5q6 28 10 48.5t4 42.5q0 48 -19 78t-54 48t-81.5 24.5t-102.5 6.5q-85 0 -194 -27.5t-177 -54.5h-10l37 188q57 15 167 34t211 19q208 0 312 -65t104 -206q0 -27 -4.5 -57.5t-10.5 -57.5l-175 -758h-187zM1156 1606q-45 -170 -151 -260.5
t-277 -90.5q-130 0 -219 75t-89 205q0 19 1.5 34.5t3.5 36.5h166q-2 -18 -2.5 -33.5t-0.5 -26.5q0 -92 42 -127t122 -35q85 0 144 50.5t92 171.5h168zM951 1708q0 -56 -40.5 -92.5t-104.5 -55.5l-13 -56h-92l23 101q57 14 80.5 35t23.5 52q0 18 -13.5 30t-40.5 12
q-28 0 -44 -4t-37 -11h-2l20 87q17 6 48.5 11t64.5 5q61 0 94 -31.5t33 -82.5z" />
    <glyph glyph-name="Abrevetilde" unicode="&#x1eb4;" horiz-adv-x="1398" 
d="M1261 0h-201l-50 419h-642l-244 -419h-209l886 1489h262zM988 581l-93 735l-432 -735h525zM1327 1798q-21 -75 -117.5 -132.5t-251.5 -57.5q-142 0 -216.5 46.5t-74.5 124.5q0 4 0.5 9.5t0.5 9.5h162v-5.5v-5.5q0 -39 42.5 -57t106.5 -18q60 0 114.5 22.5t71.5 63.5h162z
M1363 2049q-19 -82 -81 -135.5t-142 -53.5q-37 0 -72 12.5t-62 25.5t-55.5 26t-48.5 13q-29 0 -51 -16t-33 -61h-134q19 78 80 133.5t143 55.5q39 0 71.5 -12t63.5 -27q33 -16 55.5 -27t48.5 -11q27 0 50.5 17.5t32.5 59.5h134z" />
    <glyph glyph-name="abrevetilde" unicode="&#x1eb5;" horiz-adv-x="1230" 
d="M874 589q-154 -6 -273.5 -23.5t-197.5 -50.5q-81 -33 -123 -89.5t-42 -140.5q0 -72 49 -110t152 -38q91 0 185.5 40.5t176.5 97.5zM765 119q-27 -16 -73.5 -45.5t-94.5 -50.5q-51 -23 -114 -38.5t-145 -15.5q-133 0 -216 77.5t-83 202.5q0 133 58.5 224.5t173.5 149.5
q113 57 272.5 82.5t363.5 31.5q6 28 10 48.5t4 42.5q0 48 -19 78t-54 48t-81.5 24.5t-102.5 6.5q-85 0 -194 -27.5t-177 -54.5h-10l37 188q57 15 167 34t211 19q208 0 312 -65t104 -206q0 -27 -4.5 -57.5t-10.5 -57.5l-175 -758h-187zM1156 1606q-45 -170 -151 -260.5
t-277 -90.5q-130 0 -219 75t-89 205q0 19 1.5 34.5t3.5 36.5h166q-2 -18 -2.5 -33.5t-0.5 -26.5q0 -92 42 -127t122 -35q85 0 144 50.5t92 171.5h168zM1244 2014q-21 -137 -95.5 -209t-169.5 -72q-53 0 -87 20.5t-60 45.5q-22 21 -48.5 44t-51.5 23q-43 0 -63 -31t-33 -102
h-140q20 136 95 208.5t170 72.5q54 0 88 -21t60 -46q20 -19 47 -42.5t52 -23.5q42 0 63 31t33 102h140z" />
    <glyph glyph-name="Abrevedotbelow" unicode="&#x1eb6;" horiz-adv-x="1398" 
d="M1261 0h-201l-50 419h-642l-244 -419h-209l886 1489h262zM988 581l-93 735l-432 -735h525zM1388 2049q-47 -179 -167 -280.5t-281 -101.5q-146 0 -227 80.5t-81 230.5q0 19 1.5 34.5t3.5 36.5h166q-2 -18 -2.5 -33.5t-0.5 -26.5q0 -100 42 -146t122 -46q85 0 153 56.5
t106 195.5h165zM682 -382h-214l45 195h214z" />
    <glyph glyph-name="abrevedotbelow" unicode="&#x1eb7;" horiz-adv-x="1230" 
d="M874 589q-154 -6 -273.5 -23.5t-197.5 -50.5q-81 -33 -123 -89.5t-42 -140.5q0 -72 49 -110t152 -38q91 0 185.5 40.5t176.5 97.5zM765 119q-27 -16 -73.5 -45.5t-94.5 -50.5q-51 -23 -114 -38.5t-145 -15.5q-133 0 -216 77.5t-83 202.5q0 133 58.5 224.5t173.5 149.5
q113 57 272.5 82.5t363.5 31.5q6 28 10 48.5t4 42.5q0 48 -19 78t-54 48t-81.5 24.5t-102.5 6.5q-85 0 -194 -27.5t-177 -54.5h-10l37 188q57 15 167 34t211 19q208 0 312 -65t104 -206q0 -27 -4.5 -57.5t-10.5 -57.5l-175 -758h-187zM1158 1676q-47 -179 -167 -280.5
t-281 -101.5q-146 0 -227 80.5t-81 230.5q0 19 1.5 34.5t3.5 36.5h166q-2 -18 -2.5 -33.5t-0.5 -26.5q0 -100 42 -146t122 -46q85 0 153 56.5t106 195.5h165zM572 -382h-214l45 195h214z" />
    <glyph glyph-name="Edotbelow" unicode="&#x1eb8;" horiz-adv-x="1295" 
d="M1395 1489l-39 -169h-783l-96 -420h783l-39 -168h-783l-130 -563h783l-39 -169h-981l343 1489h981zM689 -382h-214l45 195h214z" />
    <glyph glyph-name="edotbelow" unicode="&#x1eb9;" horiz-adv-x="1220" 
d="M960 680q5 29 7 49t2 44q0 107 -58.5 167t-187.5 60q-142 0 -252 -88t-149 -232h638zM584 -26q-232 0 -364 109t-132 319q0 307 194 526.5t480 219.5q190 0 291 -94.5t101 -265.5q0 -30 -8.5 -95t-27.5 -151h-823q-6 -29 -8.5 -57t-2.5 -52q0 -141 86 -221.5t244 -80.5
q110 0 226.5 43t195.5 97h11l-41 -203q-50 -18 -90 -33t-102 -30t-110 -23t-120 -8zM619 -382h-214l45 195h214z" />
    <glyph glyph-name="Ehookabove" unicode="&#x1eba;" horiz-adv-x="1295" 
d="M1395 1489l-39 -169h-783l-96 -420h783l-39 -168h-783l-130 -563h783l-39 -169h-981l343 1489h981zM1175 1927q0 -69 -44 -115.5t-130 -73.5l-16 -68h-110l28 121q65 16 91 41.5t26 59.5q0 22 -16 37t-44 15q-27 0 -48.5 -5t-44.5 -13h-3l24 105q20 6 53.5 12t71.5 6
q80 0 121 -36.5t41 -85.5z" />
    <glyph glyph-name="ehookabove" unicode="&#x1ebb;" horiz-adv-x="1220" 
d="M960 680q5 29 7 49t2 44q0 107 -58.5 167t-187.5 60q-142 0 -252 -88t-149 -232h638zM584 -26q-232 0 -364 109t-132 319q0 307 194 526.5t480 219.5q190 0 291 -94.5t101 -265.5q0 -30 -8.5 -95t-27.5 -151h-823q-6 -29 -8.5 -57t-2.5 -52q0 -141 86 -221.5t244 -80.5
q110 0 226.5 43t195.5 97h11l-41 -203q-50 -18 -90 -33t-102 -30t-110 -23t-120 -8zM1018 1554q0 -69 -44 -115.5t-130 -73.5l-16 -68h-110l28 121q65 16 91 41.5t26 59.5q0 22 -16 37t-44 15q-27 0 -48.5 -5t-44.5 -13h-3l24 105q20 6 53.5 12t71.5 6q80 0 121 -36.5
t41 -85.5z" />
    <glyph glyph-name="Etilde" unicode="&#x1ebc;" horiz-adv-x="1295" 
d="M1395 1489l-39 -169h-783l-96 -420h783l-39 -168h-783l-130 -563h783l-39 -169h-981l343 1489h981zM1356 1992q-39 -156 -110.5 -231t-177.5 -75q-55 0 -94 18t-73 58t-63.5 63t-65.5 23q-46 0 -76.5 -42t-49.5 -124h-125q35 152 113 228.5t174 76.5q50 0 91.5 -19.5
t73.5 -55.5q35 -40 65.5 -61t66.5 -21q45 0 78 43.5t50 118.5h123z" />
    <glyph glyph-name="etilde" unicode="&#x1ebd;" horiz-adv-x="1220" 
d="M960 680q5 29 7 49t2 44q0 107 -58.5 167t-187.5 60q-142 0 -252 -88t-149 -232h638zM584 -26q-232 0 -364 109t-132 319q0 307 194 526.5t480 219.5q190 0 291 -94.5t101 -265.5q0 -30 -8.5 -95t-27.5 -151h-823q-6 -29 -8.5 -57t-2.5 -52q0 -141 86 -221.5t244 -80.5
q110 0 226.5 43t195.5 97h11l-41 -203q-50 -18 -90 -33t-102 -30t-110 -23t-120 -8zM1185 1619q-39 -156 -110.5 -231t-177.5 -75q-55 0 -94 18t-73 58t-63.5 63t-65.5 23q-46 0 -76.5 -42t-49.5 -124h-125q35 152 113 228.5t174 76.5q50 0 91.5 -19.5t73.5 -55.5
q35 -40 65.5 -61t66.5 -21q45 0 78 43.5t50 118.5h123z" />
    </font>
</defs>
</svg>
